#VERSION:0.83;
#TITLE:died but came back;
#SUBTITLE:;
#ARTIST:Slayr;
#TITLETRANSLIT:;
#SUBTITLETRANSLIT:;
#ARTISTTRANSLIT:;
#GENRE:;
#ORIGIN:;
#CREDIT:;
#BANNER:;
#BACKGROUND:;
#PREVIEWVID:;
#JACKET:;
#CDIMAGE:;
#DISCIMAGE:;
#LYRICSPATH:;
#CDTITLE:;
#MUSIC:slayr - Died But Came Back (OFFICIAL MUSIC VIDEO).ogg;
#OFFSET:0.000000;
#SAMPLESTART:100.059883;
#SAMPLELENGTH:12.000000;
#SELECTABLE:YES;
#BPMS:0.000=147.000;
#STOPS:0.000=0.200;
#DELAYS:;
#WARPS:;
#TIMESIGNATURES:0.000=4=4;
#TICKCOUNTS:0.000=4;
#COMBOS:0.000=1;
#SPEEDS:0.000=1.000=0.000=0;
#SCROLLS:0.000=1.000;
#FAKES:;
#LABELS:0.000=Song Start;
#BGCHANGES:0.000=slayr - Died But Came Back (OFFICIAL MUSIC VIDEO).mp4=1.000=0=0=1=====,
99999=-nosongbg-=1.000=0=0=0 // don't automatically add -songbackground-
;
#KEYSOUNDS:;
#ATTACKS:
;

//---------------dance-single - ----------------
#NOTEDATA:;
#CHARTNAME:;
#STEPSTYPE:dance-single;
#DESCRIPTION:;
#CHARTSTYLE:;
#DIFFICULTY:Hard;
#METER:12;
#RADARVALUES:0.496561,0.579321,0.144830,0.019750,0.190913,528.000000,506.000000,22.000000,3.000000,0.000000,0.000000,0.000000,0.000000,0.000000,0.496561,0.579321,0.144830,0.019750,0.190913,528.000000,506.000000,22.000000,3.000000,0.000000,0.000000,0.000000,0.000000,0.000000;
#CREDIT:;
#NOTES:
// measure 0
0000
0000
0000
0000
,  // measure 1
0000
0000
0000
0000
,  // measure 2
0000
0000
0000
0010
0100
0000
0000
1000
0001
0000
0000
0000
1001
0000
0000
0000
,  // measure 3
0010
0000
0000
0000
0100
0000
0000
0000
0001
0000
0000
0000
1000
0000
0000
0000
0000
0000
0000
0000
0000
0100
0000
0000
0010
0000
0000
0000
0000
0000
0000
0000
0000
0000
0000
0000
1001
0000
0000
0000
0000
0000
0000
0000
0000
0000
0000
0000
,  // measure 4
0010
0000
0000
0000
0001
0000
0000
0000
0100
0000
0000
0000
0010
0000
0000
0000
0000
0000
0000
0000
0000
0001
0000
0000
0100
0000
0000
0000
0000
0000
0000
0000
0000
0000
0000
0000
1001
0000
0000
0000
0000
0000
0000
0000
0000
0000
0000
0000
,  // measure 5
0001
0000
0000
0000
0100
0000
0000
0000
1000
0000
0000
0000
0001
0000
0000
0000
0000
0000
0000
0000
0000
0100
0000
0000
0010
0000
0000
0000
0000
0000
0000
0000
0000
0000
0000
0000
1001
0000
0000
0000
0000
0000
0000
0000
0000
0000
0000
0000
,  // measure 6
0000
0000
0000
0010
0001
0000
0000
0100
0010
0000
0000
0000
1001
0000
0000
0000
,  // measure 7
1000
0000
0000
0000
0001
0000
0000
0000
0100
0000
0000
0000
0010
0000
0000
0000
0000
0000
0000
0000
0000
0001
0000
0000
0100
0000
0000
0000
0000
0000
0000
0000
0000
0000
0000
0000
1001
0000
0000
0000
0000
0000
0000
0000
0000
0000
0000
0000
,  // measure 8
0100
0000
0010
0100
0000
0001
0000
1000
,  // measure 9
0000
0100
0001
0010
0100
0000
0001
0000
,  // measure 10
0001
0000
0100
0010
0000
0001
0000
0100
,  // measure 11
0000
0100
0000
0010
0001
0000
0100
0000
,  // measure 12
0100
0000
0010
0001
0000
0100
0000
0001
,  // measure 13
0000
1000
0001
0100
0010
0000
0100
0001
,  // measure 14
0001
0000
0100
0010
0000
0001
0000
0100
,  // measure 15
0000
0010
0001
0100
1000
0000
0001
0000
,  // measure 16
1001
0100
0001
1000
0001
0010
0100
0001
,  // measure 17
0000
0100
0010
0001
1000
0001
0100
0010
,  // measure 18
0000
0100
0001
0100
0010
0001
1000
0001
,  // measure 19
0000
0100
0010
0001
0100
0001
0100
1000
,  // measure 20
0101
0100
0010
0001
1000
0001
0100
1000
,  // measure 21
0000
0010
0100
0010
0001
0100
0010
0100
,  // measure 22
1001
0100
0010
0001
1000
0001
0100
0010
,  // measure 23
1001
0001
0100
0010
0100
0001
1000
0100
,  // measure 24
1001
0000
0000
0100
0100
0000
0010
0000
,  // measure 25
0100
0000
1001
0000
0001
1000
0100
0010
,  // measure 26
0100
0001
0010
0100
0001
0010
0100
0000
,  // measure 27
0010
0000
0000
0000
1001
0000
0000
0000
0100
0000
0000
0010
0100
0000
0000
0000
,  // measure 28
1000
0000
0000
0010
0001
0000
0000
0010
0100
0000
0000
0010
0100
0000
0000
0000
,  // measure 29
0001
0000
1001
0000
0100
0010
0100
0100
,  // measure 30
1000
0000
0010
0000
0001
0000
1000
0000
0100
0000
0000
0100
0010
0000
0000
0000
,  // measure 31
0010
0000
0000
0000
0000
0000
0000
0001
0100
0000
0000
0010
0100
0000
0000
0001
,  // measure 32
1000
1001
0001
0100
,  // measure 33
0010
0100
0001
0000
1000
0010
0100
0010
0001
1000
0001
0100
,  // measure 34
1000
0000
0010
0000
0010
0001
0100
0010
0001
1000
0001
0100
,  // measure 35
1000
0000
0100
0000
0001
0100
0001
0010
0100
0010
0001
0100
,  // measure 36
1000
0000
0000
0000
0100
0000
0000
0000
0000
0001
0000
0000
0100
0000
0000
0010
0000
0000
0100
0000
0000
0001
0000
0000
,  // measure 37
1000
0010
0000
0200
0000
0000
0310
0000
,  // measure 38
0000
0000
0000
0100
0010
0001
0100
0010
,  // measure 39
0001
0100
0001
1000
0200
0000
0310
0000
,  // measure 40
0110
0000
0000
0010
0100
0000
0000
0010
,  // measure 41
0100
0000
1001
0010
0100
0000
1001
0000
,  // measure 42
0100
0000
0000
0000
0001
0000
0000
0000
1000
0000
0000
0000
0100
0000
0000
0000
0000
0000
0000
0000
0000
0010
0000
0000
0100
0000
0000
0000
0000
0000
0000
0000
0000
0000
0000
0000
0010
0000
0000
0000
0000
0000
0100
0000
0000
0000
0000
0000
,  // measure 43
0001
0000
0000
0000
0100
0000
0000
0000
0010
0000
0000
0000
0100
0000
0000
0000
0000
0000
0000
0000
0000
1000
0000
0000
0100
0000
0000
0000
0000
0000
0000
0000
0000
0000
0000
0000
0000
0000
0000
0000
0000
0000
0000
0000
0000
0000
0000
0000
,  // measure 44
0100
0001
1000
0100
0001
0010
0100
0001
,  // measure 45
0100
0010
0001
1000
0001
0100
0010
0001
,  // measure 46
0100
0001
0100
0010
0001
1000
0001
0100
,  // measure 47
0010
0001
0100
0010
0001
1000
0001
0100
0020
0000
0000
0000
0030
0000
0000
0000
,  // measure 48
0100
0000
0000
0001
0100
0000
0010
0000
0100
0000
1000
0000
0100
0000
0010
0000
,  // measure 49
0100
0010
0100
1000
0100
0010
0100
0010
,  // measure 50
0100
0010
0100
1000
0010
0100
0010
0001
,  // measure 51
0100
0010
0001
1000
0001
0100
0010
0001
,  // measure 52
0100
0001
0100
0010
0001
1000
0001
0100
,  // measure 53
0010
0001
0100
0001
0100
0010
0001
0100
,  // measure 54
0001
0100
0010
0001
1000
0001
0100
0010
,  // measure 55
0001
0100
0001
0100
0010
0100
0001
0100
,  // measure 56
1000
0000
0010
0100
0000
0001
0000
1000
,  // measure 57
0000
0100
0001
0010
0100
0000
0001
0010
,  // measure 58
0100
0000
0001
1000
0000
0100
0000
0001
,  // measure 59
0000
0010
0100
0001
1000
0000
0100
0000
,  // measure 60
0010
0000
0001
0100
0000
0010
0000
0001
,  // measure 61
0000
0010
0001
0100
0010
0000
0100
0010
,  // measure 62
0100
0000
0010
0001
0000
1000
0000
0100
,  // measure 63
0000
0010
0001
0100
0001
0000
0100
0000
,  // measure 64
0100
0000
0010
0001
0000
0100
0000
1000
,  // measure 65
0000
0010
0100
0001
1000
0000
0100
0000
,  // measure 66
0100
0000
0010
0001
0000
0100
0000
1000
,  // measure 67
0000
0001
0100
0001
0010
0000
0100
0000
,  // measure 68
0100
0000
0010
0001
0000
1000
0000
0100
,  // measure 69
0000
0001
0100
0010
0100
0000
0001
0000
,  // measure 70
0100
0000
0010
0001
0000
1000
0000
0100
,  // measure 71
0000
0010
0100
1000
0001
0000
0100
0000
,  // measure 72
0001
0100
0010
0001
0100
0001
1000
0100
,  // measure 73
0000
0100
0010
0001
0100
0001
1000
0100
,  // measure 74
1001
0100
0010
0001
0100
0001
1000
0100
,  // measure 75
0000
0100
0010
0001
0100
0001
0100
0010
,  // measure 76
1001
0010
0100
0010
0100
0001
0100
1000
,  // measure 77
0000
0001
0100
0010
0001
0100
0001
0100
,  // measure 78
1001
0100
0001
0100
0010
0100
0001
0010
,  // measure 79
0000
0100
0010
0001
0100
0001
0100
0010
,  // measure 80
1001
0000
0000
0000
;
