#VERSION:0.83;
#TITLE:destiny;
#SUBTITLE:;
#ARTIST:Thaiboi Digital & Swedm;
#TITLETRANSLIT:;
#SUBTITLETRANSLIT:;
#ARTISTTRANSLIT:;
#GENRE:;
#ORIGIN:;
#CREDIT:;
#BANNER:;
#BACKGROUND:;
#PREVIEWVID:;
#JACKET:;
#CDIMAGE:;
#DISCIMAGE:;
#LYRICSPATH:;
#CDTITLE:;
#MUSIC:Destiny.ogg;
#OFFSET:0.000000;
#SAMPLESTART:100.059883;
#SAMPLELENGTH:12.000000;
#SELECTABLE:YES;
#BPMS:0.000=134.000;
#STOPS:;
#DELAYS:;
#WARPS:;
#TIMESIGNATURES:0.000=4=4;
#TICKCOUNTS:0.000=4;
#COMBOS:0.000=1;
#SPEEDS:0.000=1.000=0.000=0;
#SCROLLS:0.000=1.000;
#FAKES:;
#LABELS:0.000=Song Start;
#BGCHANGES:;
#KEYSOUNDS:;
#ATTACKS:
;

//---------------dance-single - ----------------
#NOTEDATA:;
#CHARTNAME:;
#STEPSTYPE:dance-single;
#DESCRIPTION:;
#CHARTSTYLE:;
#DIFFICULTY:Hard;
#METER:12;
#RADARVALUES:0.484517,0.473013,0.012401,0.055804,0.117808,547.000000,545.000000,2.000000,9.000000,0.000000,0.000000,0.000000,0.000000,0.000000,0.484517,0.473013,0.012401,0.055804,0.117808,547.000000,545.000000,2.000000,9.000000,0.000000,0.000000,0.000000,0.000000,0.000000;
#CREDIT:;
#NOTES:
// measure 0
0000
0000
0000
0000
,  // measure 1
0000
0000
0000
0000
,  // measure 2
0000
0000
0000
0000
,  // measure 3
0000
0000
0000
0000
,  // measure 4
0100
0010
0001
0100
0001
0100
0010
0001
,  // measure 5
0100
0001
0100
0010
0001
0100
0001
0100
,  // measure 6
1000
0010
1000
0010
0100
0010
0100
0001
,  // measure 7
0100
0010
0001
0100
0001
0100
0010
0001
,  // measure 8
0100
0001
0100
0010
0001
0100
0001
0100
,  // measure 9
1000
0010
0100
0010
0001
0100
0001
0100
,  // measure 10
1000
0010
0001
0100
0001
0100
0010
0001
,  // measure 11
0100
0001
0100
0010
0001
0100
0001
0100
,  // measure 12
1000
0000
0010
0100
0001
0000
0100
0000
,  // measure 13
0010
0000
0001
0000
0100
0000
0010
0000
0100
0000
0000
0001
0000
0000
0020
0000
,  // measure 14
0000
0000
0000
0000
0000
0000
0000
0030
,  // measure 15
0001
0000
1000
0000
0001
0000
0000
0000
0010
0000
0000
0001
0000
0000
0200
0000
,  // measure 16
0000
0000
0000
0000
0000
0000
0000
0300
,  // measure 17
0001
1000
0001
0100
0001
0000
0100
0000
,  // measure 18
0101
0001
0100
0001
0100
0000
1000
0000
,  // measure 19
0110
0000
0100
0000
0100
0000
0010
0000
0100
0000
0000
0001
0000
0000
0020
0000
,  // measure 20
0000
0000
0000
0000
0030
0100
0010
0100
,  // measure 21
0000
0001
0000
0100
0000
0000
0000
0010
,  // measure 22
0000
0001
0000
0100
0000
1000
0000
0001
,  // measure 23
0000
0100
0000
0010
0000
0200
0000
0000
,  // measure 24
0000
0000
0000
0300
0000
0100
0001
0010
,  // measure 25
0000
0010
0000
0001
0000
0100
0000
0010
,  // measure 26
0000
0001
0000
0100
0000
1000
0000
0001
,  // measure 27
0000
0100
0000
0010
0000
0200
0000
0000
,  // measure 28
0000
0300
0100
0001
1000
0010
0000
0100
,  // measure 29
0100
0000
0000
0020
0000
0000
0000
0000
,  // measure 30
0030
0000
0100
0001
0010
0100
0000
0001
,  // measure 31
0010
0000
0000
0000
0000
0100
0001
0100
,  // measure 32
1000
0100
0010
0100
0001
0100
0010
0001
,  // measure 33
0100
0001
0100
0010
0001
0100
0001
1000
,  // measure 34
0100
0010
0100
0010
0001
0100
0001
0100
,  // measure 35
0010
0001
0100
0010
0001
0100
0001
0100
,  // measure 36
1000
0010
1000
0001
0100
0001
0010
0100
,  // measure 37
0010
0001
0100
1000
0001
0100
0010
0001
,  // measure 38
0100
0001
0100
0010
0001
1000
0001
0100
,  // measure 39
0010
0000
0000
0001
0100
0000
0000
0010
0001
0000
0100
0000
0001
0000
0100
0000
,  // measure 40
1000
0000
0000
0100
0010
0000
0000
0010
0100
0000
0000
0010
0100
0000
0000
0010
,  // measure 41
0001
0000
0000
0100
1000
0000
0000
0001
0100
0000
0000
0010
0001
0000
0000
0010
,  // measure 42
0100
0000
0000
0100
0001
0000
0000
1000
0100
0000
0000
0001
0010
0000
0000
0010
,  // measure 43
0001
0000
0000
0100
0010
0000
0000
0100
0010
0000
0000
0100
0001
0000
0000
1000
,  // measure 44
0100
0001
0100
0010
0001
0100
0001
0100
,  // measure 45
1000
0010
0001
0100
0010
0001
0100
0001
,  // measure 46
0100
0010
0001
1000
0001
0100
0010
0001
,  // measure 47
0100
0001
0100
0010
0000
0100
0001
0100
,  // measure 48
1000
0100
0010
1000
0010
0100
0010
0010
,  // measure 49
0010
0100
0001
0100
0010
0100
1000
0100
,  // measure 50
0010
0001
0100
0001
0100
0010
0001
0100
,  // measure 51
0001
0100
0010
0001
0100
0001
0100
0010
,  // measure 52
0100
1000
0010
0100
0001
0100
0010
0001
,  // measure 53
0100
0001
0100
0010
0001
0100
0001
0100
,  // measure 54
0010
0001
0100
0001
0100
0010
0001
1000
,  // measure 55
0001
0100
0001
0010
0100
0010
0001
0100
,  // measure 56
0000
0010
0000
0001
0000
0100
0000
0010
,  // measure 57
0000
0001
0000
0100
0000
2000
0000
0000
,  // measure 58
0000
0000
0000
0000
,  // measure 59
0000
0000
0000
0000
3000
0001
0100
1000
,  // measure 60
0000
1000
0000
0001
0000
0100
0000
0010
,  // measure 61
0000
0001
0000
0010
0000
0200
0000
0000
,  // measure 62
0000
0000
0000
0000
,  // measure 63
0000
0000
0000
0000
0300
0001
0100
1000
,  // measure 64
0010
0100
0010
0100
0010
0010
0100
0100
,  // measure 65
0010
1000
0010
0100
0001
0100
0010
0001
,  // measure 66
0100
0001
0100
0010
0001
0100
0010
0001
,  // measure 67
1000
0001
0100
0010
0001
0100
0001
0100
,  // measure 68
0010
0001
0100
0001
0100
0010
0100
1000
,  // measure 69
0100
0010
0001
0100
0001
0100
0010
0100
,  // measure 70
0010
0100
0010
0100
1000
0100
0010
0100
,  // measure 71
0001
0100
0010
0001
0100
0001
0100
0010
,  // measure 72
0001
0100
0001
0100
0010
0001
1000
0001
,  // measure 73
0100
0010
0001
0100
0001
0100
0010
0100
,  // measure 74
0010
0100
0010
1000
0010
0100
0001
0100
,  // measure 75
0010
0001
0100
0001
0100
0010
0001
1000
,  // measure 76
0001
0100
0010
0001
0100
0001
0100
0010
,  // measure 77
0001
0100
0001
0100
0010
0001
1000
0001
,  // measure 78
0100
0010
0001
0100
0001
0100
0010
0001
,  // measure 79
1000
0000
0001
0000
0100
0000
0010
0000
0100
0000
0000
0001
0000
0000
0000
0000
,  // measure 80
0100
0000
0000
0010
0100
0000
0000
0001
1000
0000
0000
0001
0100
0000
0000
0010
,  // measure 81
0100
0000
0000
0010
0100
0000
0000
0001
1000
0000
0000
0100
0001
0000
0000
0010
,  // measure 82
0100
0000
0000
0010
0001
0000
0000
0100
0010
0000
0000
0001
0100
0000
0000
0100
,  // measure 83
1000
0000
0000
0001
0100
0000
0000
0010
0100
0000
0000
0100
1000
0000
0000
0001
,  // measure 84
0100
0010
0010
0001
0100
0001
0100
0010
,  // measure 85
0001
1000
0001
0100
0010
0001
0100
0001
,  // measure 86
0100
0010
0001
0100
0001
0100
0010
0001
,  // measure 87
1000
0001
0100
0010
0001
0100
0001
0200
,  // measure 88
0000
0000
0000
0000
,  // measure 89
0000
0000
0000
0300
;
