#VERSION:0.83;
#TITLE:delulu;
#SUBTITLE:;
#ARTIST:KiiKii;
#TITLETRANSLIT:;
#SUBTITLETRANSLIT:;
#ARTISTTRANSLIT:;
#GENRE:;
#ORIGIN:;
#CREDIT:;
#BANNER:;
#BACKGROUND:;
#PREVIEWVID:;
#JACKET:;
#CDIMAGE:;
#DISCIMAGE:;
#LYRICSPATH:;
#CDTITLE:;
#MUSIC:Delulu.ogg;
#OFFSET:0.000000;
#SAMPLESTART:100.059883;
#SAMPLELENGTH:12.000000;
#SELECTABLE:YES;
#BPMS:0.000=122.000;
#STOPS:0.000=0.100;
#DELAYS:;
#WARPS:;
#TIMESIGNATURES:0.000=4=4;
#TICKCOUNTS:0.000=4;
#COMBOS:0.000=1;
#SPEEDS:0.000=1.000=0.000=0;
#SCROLLS:0.000=1.000;
#FAKES:;
#LABELS:0.000=Song Start;
#BGCHANGES:;
#KEYSOUNDS:;
#ATTACKS:
;

//---------------dance-single - ----------------
#NOTEDATA:;
#CHARTNAME:;
#STEPSTYPE:dance-single;
#DESCRIPTION:;
#CHARTSTYLE:;
#DIFFICULTY:Hard;
#METER:12;
#RADARVALUES:0.456960,0.649459,0.416320,0.083264,0.222037,461.000000,401.000000,60.000000,12.000000,0.000000,0.000000,0.000000,0.000000,0.000000,0.456960,0.649459,0.416320,0.083264,0.222037,461.000000,401.000000,60.000000,12.000000,0.000000,0.000000,0.000000,0.000000,0.000000;
#CREDIT:;
#NOTES:
// measure 0
0000
0000
0000
0000
,  // measure 1
0000
0000
0000
0000
,  // measure 2
0000
0000
0000
0000
,  // measure 3
0010
0001
0100
0010
0000
0100
0001
0100
,  // measure 4
1000
0000
0000
0000
,  // measure 5
0100
0001
0000
1000
0000
0100
0000
0001
0010
0000
0100
0000
0000
0000
0000
0000
,  // measure 6
0010
0001
0000
0100
0000
0010
0000
0001
1000
0000
0100
0000
0000
0000
0000
0000
,  // measure 7
0100
0010
0000
0001
0000
0100
0000
0010
0001
0000
0100
0000
0000
0000
0000
0000
,  // measure 8
0101
0000
0000
0000
0000
0000
0100
0000
1000
0000
0000
0000
0100
0001
1000
0100
,  // measure 9
0001
0010
0000
0010
0000
0001
0000
0100
0010
0000
0100
0000
0000
0000
0000
0000
,  // measure 10
0100
0000
0000
0001
0000
0010
0000
0100
0001
0000
0010
0000
0000
0000
1000
0000
,  // measure 11
0100
0000
0000
0000
0100
0001
1000
0000
0100
0000
0000
0000
0000
0000
0000
0000
,  // measure 12
0020
0000
0000
0000
0030
0000
0100
0000
0001
0000
0000
0010
0000
0000
0000
0000
,  // measure 13
1001
0000
0000
0100
0000
0000
0010
0000
0000
0001
0000
0000
1100
0000
0000
0000
,  // measure 14
0110
0000
0000
0001
0000
0000
0100
0000
0000
0010
0001
0000
1000
0000
0000
0000
,  // measure 15
0100
0000
0000
0010
0000
0000
0001
0000
0100
1000
0000
0000
0010
0000
0000
0000
,  // measure 16
2002
3003
0220
0330
,  // measure 17
1001
0000
0000
0100
0010
0000
1000
0000
0000
0010
0001
0000
0010
0000
0000
0000
,  // measure 18
0101
0000
0000
1000
0000
0000
0001
0000
0000
0010
0000
0000
0000
0000
0000
0000
,  // measure 19
1001
0000
0000
0100
0000
0000
0010
0000
0000
0001
0100
0000
1000
0000
0000
0000
,  // measure 20
0001
0100
0010
0100
0100
0001
0100
0010
0100
0001
0100
0001
1000
0010
0100
0001
,  // measure 21
0100
0100
0010
0001
1000
0001
0100
0010
,  // measure 22
0110
0101
0110
0101
,  // measure 23
0001
0100
0010
0001
0100
0001
0100
1000
,  // measure 24
0110
0101
0110
0101
,  // measure 25
0100
0001
0100
0001
1000
0001
0010
0100
,  // measure 26
0110
1100
0101
0110
,  // measure 27
0000
0000
0000
0000
0000
0000
0100
0000
0001
0000
0000
0010
0000
0000
0000
0000
,  // measure 28
1001
0000
0000
0010
0001
0100
0001
1000
,  // measure 29
0100
0000
0000
0110
0001
1000
0001
0100
,  // measure 30
1000
0000
0000
0000
0001
0100
1000
0000
,  // measure 31
0100
0010
0100
0001
0000
0010
0001
0100
,  // measure 32
1000
0001
0100
0010
0001
0100
0001
0100
,  // measure 33
1000
0000
0000
0010
0001
0100
0001
0100
,  // measure 34
1000
0000
0000
0010
0001
0100
1000
0000
,  // measure 35
0010
0001
0100
0001
0000
0100
0001
0010
,  // measure 36
1100
0001
0100
0010
0101
0100
1000
0000
,  // measure 37
0010
0000
0000
0100
0000
0000
0000
0000
,  // measure 38
0000
0010
0100
0010
0001
1000
0001
0100
,  // measure 39
1000
0000
0000
0010
0000
0000
0000
0000
,  // measure 40
1001
0001
0010
0100
0011
0100
0001
0100
,  // measure 41
0001
0000
0001
0100
0000
0001
0010
0001
,  // measure 42
0010
0000
0001
0100
0000
0000
0000
0001
,  // measure 43
0010
0000
1000
0200
0000
0000
0000
0300
,  // measure 44
0110
1100
0110
0101
,  // measure 45
0101
0000
0000
1000
0000
0100
0000
0000
0000
0001
0010
0000
0100
0000
0010
0000
,  // measure 46
0100
0000
0000
0001
0000
0100
0000
0010
0000
0001
0100
0000
0010
0000
0000
0000
,  // measure 47
0110
0000
0000
0001
0000
0100
0000
0010
0000
0001
0100
0000
0010
0000
0000
0000
,  // measure 48
2002
3003
0220
0330
,  // measure 49
0100
0000
0000
0010
0000
0000
0100
0000
0000
0001
0010
0000
0100
0000
0000
0000
,  // measure 50
0100
0000
0000
0010
0000
0000
0001
0000
0000
0100
1000
0000
0100
0000
0000
0000
,  // measure 51
0101
0000
0000
0100
0000
0010
0000
0001
0000
0100
1000
0000
0100
0000
0000
0000
,  // measure 52
0220
0000
0330
0000
0110
0110
0110
0110
,  // measure 53
0110
0010
0100
0010
0100
0001
0100
0001
,  // measure 54
1100
0101
0110
1001
,  // measure 55
0010
0100
0001
1000
0001
0010
0100
0001
,  // measure 56
0110
0101
0110
1100
,  // measure 57
0001
0100
0010
0001
0100
0001
0100
1000
,  // measure 58
0110
0110
0110
1001
,  // measure 59
0000
0000
0000
0000
0000
0000
0100
0000
0001
0000
0000
0010
0000
0000
0000
0000
,  // measure 60
0101
0000
0000
0010
0101
1000
0100
0001
,  // measure 61
0110
0000
0000
0110
1000
0100
0001
0100
,  // measure 62
1000
0000
0000
0000
0001
0100
1000
0000
,  // measure 63
0010
0010
0001
0100
0000
0100
0001
1000
,  // measure 64
0001
0010
0100
0010
0001
0100
0001
0100
,  // measure 65
1000
0000
0000
0000
0001
0100
0001
0100
,  // measure 66
1000
0000
0000
0010
0001
0100
1000
0000
,  // measure 67
0010
0001
0100
0010
0000
0001
0100
0001
,  // measure 68
1100
0001
0100
0010
0110
0100
0001
0100
,  // measure 69
1000
0000
0000
0000
0001
1000
0001
0100
,  // measure 70
0010
0000
0000
0000
0001
0100
1000
0000
,  // measure 71
0001
1000
0001
0100
0000
0010
0001
0100
,  // measure 72
1000
0000
0000
0000
;
