#VERSION:0.83;
#TITLE:deeper;
#SUBTITLE:;
#ARTIST:Disclousre & Leon Thomas;
#TITLETRANSLIT:;
#SUBTITLETRANSLIT:;
#ARTISTTRANSLIT:;
#GENRE:;
#ORIGIN:;
#CREDIT:;
#BANNER:;
#BACKGROUND:;
#PREVIEWVID:;
#JACKET:;
#CDIMAGE:;
#DISCIMAGE:;
#LYRICSPATH:;
#CDTITLE:;
#MUSIC:Disclosure, Leon Thomas - Deeper (Official Lyric Video).ogg;
#OFFSET:0.000000;
#SAMPLESTART:100.059883;
#SAMPLELENGTH:12.000000;
#SELECTABLE:YES;
#BPMS:0.000=136.000;
#STOPS:0.000=0.100;
#DELAYS:;
#WARPS:;
#TIMESIGNATURES:0.000=4=4;
#TICKCOUNTS:0.000=4;
#COMBOS:0.000=1;
#SPEEDS:0.000=1.000=0.000=0;
#SCROLLS:0.000=1.000;
#FAKES:;
#LABELS:0.000=Song Start;
#BGCHANGES:;
#KEYSOUNDS:;
#ATTACKS:
;

//---------------dance-single - ----------------
#NOTEDATA:;
#CHARTNAME:;
#STEPSTYPE:dance-single;
#DESCRIPTION:;
#CHARTSTYLE:;
#DIFFICULTY:Hard;
#METER:13;
#RADARVALUES:0.399683,0.860286,0.010362,0.048357,0.412759,810.000000,807.000000,3.000000,14.000000,0.000000,0.000000,0.000000,0.000000,0.000000,0.399683,0.860286,0.010362,0.048357,0.412759,810.000000,807.000000,3.000000,14.000000,0.000000,0.000000,0.000000,0.000000,0.000000;
#CREDIT:;
#NOTES:
// measure 0
0000
0000
0000
0000
,  // measure 1
0000
0000
0000
0000
,  // measure 2
0000
0000
0000
0000
,  // measure 3
0000
0000
0000
0000
,  // measure 4
0000
0000
0000
0000
,  // measure 5
0000
0000
0000
0000
,  // measure 6
0000
0000
0000
0000
,  // measure 7
0000
0000
0000
0000
,  // measure 8
0000
0000
0000
0000
,  // measure 9
0000
0000
0000
0000
,  // measure 10
0000
0000
0000
0000
,  // measure 11
0000
0000
0000
0000
,  // measure 12
0000
0000
0000
0000
,  // measure 13
0000
0000
0000
0000
,  // measure 14
0000
0000
0000
0000
,  // measure 15
0000
0000
0000
0000
,  // measure 16
0000
0000
0000
0000
,  // measure 17
0000
0000
0000
0000
,  // measure 18
0000
0000
0000
0000
,  // measure 19
0000
0000
0000
0000
,  // measure 20
0000
0000
0000
0000
,  // measure 21
0000
0000
0000
0000
,  // measure 22
0000
0000
0000
0000
,  // measure 23
0000
0000
0000
0000
,  // measure 24
0100
0000
0001
1000
0100
0001
0100
0000
,  // measure 25
0001
0100
0001
0100
1000
0000
0000
0000
,  // measure 26
0000
0000
0001
1000
0001
0100
1000
0000
,  // measure 27
0001
1000
0001
0100
1000
0000
0000
0000
,  // measure 28
0000
0000
0001
1000
0001
0100
1000
0001
,  // measure 29
1000
0001
0100
0000
0010
0000
0000
0000
,  // measure 30
0000
0000
0001
1000
0001
0100
1000
0000
,  // measure 31
0001
0000
1000
0000
0001
0000
0100
0000
1000
0100
0000
0001
0010
0000
0000
0000
,  // measure 32
0000
0000
0000
0000
0000
0000
0000
0000
1000
0000
0100
0001
0000
0010
0100
0000
,  // measure 33
0001
0000
0000
0000
0000
0000
0000
0000
0010
0000
0100
0001
0000
0010
0100
0000
,  // measure 34
0010
0000
0000
0000
0000
0000
0000
0000
1000
0100
0000
0001
0000
0010
0100
0000
,  // measure 35
0001
0000
0000
0000
0000
0000
0000
0000
1000
0100
0000
0001
0000
0010
0100
0000
,  // measure 36
0001
0000
0000
0000
0000
0000
0000
0000
1000
0100
0000
0001
0000
0010
0100
0000
,  // measure 37
0001
0000
0000
0000
0000
0000
0000
0000
1000
0100
0000
0001
0000
0010
0100
0000
,  // measure 38
0001
0000
0000
0000
0000
0000
0000
0000
0100
0001
0000
0010
0000
0100
0001
0000
,  // measure 39
1000
0000
0000
0100
0000
0000
0000
0000
,  // measure 40
1001
0000
0000
0001
0100
0001
1000
0000
1000
0000
0001
0000
0100
0000
0010
0000
,  // measure 41
0000
0000
0000
0010
,  // measure 42
0000
0000
0000
0001
0010
0100
0001
0000
1000
0000
0001
0000
0100
0000
0010
0000
,  // measure 43
0000
0100
0001
0000
0010
0100
0000
0001
,  // measure 44
1000
0000
0000
0010
0100
0001
1000
0000
0100
0000
0001
0000
0010
0000
0001
0000
,  // measure 45
0000
0000
0000
0000
0000
0000
1000
0100
0001
0000
0010
0000
0001
0000
0100
0000
,  // measure 46
1000
0000
0000
0100
0001
1000
0100
0000
0010
0000
0001
0000
0100
0000
1000
0000
,  // measure 47
0000
0000
0000
0000
0100
0001
0000
0010
0100
0001
0000
1000
0100
0001
0100
0000
,  // measure 48
0010
0000
0100
0000
0000
0000
0001
0000
1000
0000
0000
0100
0000
0001
1000
0000
,  // measure 49
0100
0000
0000
0000
0010
0000
0000
0000
0000
0000
0000
0000
1000
0100
0001
0000
,  // measure 50
0010
0000
0100
0001
0000
0000
1000
0000
0100
0001
0000
0000
0100
0000
1000
0000
,  // measure 51
0000
0000
0001
0000
0000
0000
0100
0000
0000
0000
0010
0100
0001
1000
0100
0000
,  // measure 52
0001
0000
0010
0000
0000
0000
0100
0000
1000
0000
0000
0001
0000
0010
0100
0000
,  // measure 53
0001
1000
0100
0000
,  // measure 54
0000
0100
0001
0000
1000
0100
0000
0001
,  // measure 55
0020
0000
0000
0000
,  // measure 56
0030
0000
0010
0100
0001
1000
0001
0000
,  // measure 57
0001
1000
0001
0100
1000
0000
0000
0000
,  // measure 58
0000
0000
0001
1000
0001
0100
1000
0000
,  // measure 59
0001
1000
0001
0100
1000
0000
0000
0000
,  // measure 60
0000
0000
0000
0000
0100
0000
0000
0001
0010
0000
0000
0000
0000
0000
0000
0000
,  // measure 61
1000
0000
0000
0001
0100
0000
0000
0010
0200
0000
0000
0000
0000
0000
0000
0000
,  // measure 62
0300
0000
0010
0100
0001
0000
0001
0100
,  // measure 63
0010
0000
0000
0000
0000
0001
0100
0000
1000
0000
0000
0100
0001
0000
1000
0000
,  // measure 64
0000
0000
0000
0000
0000
0000
0000
0000
0100
0000
0001
1000
0000
0100
0001
0000
,  // measure 65
0010
0000
0000
0000
0000
0000
0000
0000
0100
0000
0001
0010
0000
0100
0001
0000
,  // measure 66
0010
0000
0000
0000
0000
0000
0000
0000
1000
0100
0000
0001
0000
0010
0100
0000
,  // measure 67
0001
0000
0000
0000
0000
0000
0000
0000
1000
0100
0000
0001
0000
0010
0100
0000
,  // measure 68
0001
0000
0000
0000
0000
0000
0000
0000
1000
0100
0000
0001
0000
0010
0100
0000
,  // measure 69
0001
0000
0000
0000
0000
0000
0000
0000
0100
0001
0000
0010
0000
0100
0001
0000
,  // measure 70
1000
0000
0000
0000
0000
0000
0000
0000
0100
0001
0000
0010
0000
0100
0001
0000
,  // measure 71
1000
0000
0100
0000
0010
0000
0001
0000
1000
0010
0001
0000
0100
0000
0000
0000
,  // measure 72
0000
0000
0000
0100
0001
1000
0001
0000
0100
0000
0010
0001
1000
0100
0001
1000
,  // measure 73
0002
0000
0000
0000
0003
0000
0000
0000
0100
0001
1000
0001
0010
0000
0000
0000
,  // measure 74
0010
0000
0000
0100
0001
1000
0100
0000
0001
0000
0100
0000
1000
0000
0010
0000
,  // measure 75
0000
0001
0010
0000
0100
0001
0000
0010
,  // measure 76
0100
0000
0000
0001
1000
0100
0001
0000
0010
0000
0100
0000
0001
0000
0000
0000
,  // measure 77
0000
0000
0000
0000
0000
0000
0100
0001
0010
0000
0010
0000
0001
0000
0100
0000
,  // measure 78
1000
0000
0000
0100
0001
1000
0100
0000
0001
0000
0010
0000
0100
0000
0000
0000
,  // measure 79
0100
0000
0010
0100
0000
0001
0010
0100
1000
0100
0001
0010
0100
0001
0010
0000
,  // measure 80
0100
0000
0001
0000
0000
0000
0100
0000
0001
0000
0000
0001
0000
0100
0010
0000
,  // measure 81
0100
0000
0000
0000
1000
0000
0000
0000
0000
0000
0000
0000
1000
0100
0001
0000
,  // measure 82
0010
0000
0100
0001
0000
0000
1000
0000
0100
0001
0000
0000
0100
0000
0001
0000
,  // measure 83
0000
0000
0000
0000
0000
0000
0000
0000
0000
0000
0000
1000
0100
0001
0010
0000
,  // measure 84
0100
0000
0010
0000
0000
0000
0001
0000
0100
0000
0000
0001
0000
0010
0100
0000
,  // measure 85
0001
1000
0000
0000
,  // measure 86
0000
0010
0100
0000
0010
0001
0000
0001
,  // measure 87
0100
0000
0000
0000
0000
0000
0000
0000
1000
0100
0001
1000
0001
0000
0000
0000
,  // measure 88
0100
0000
0000
0001
0000
0000
1000
0000
0000
0100
0000
0000
0001
0000
0000
0010
,  // measure 89
0000
0001
0100
0000
0010
0001
0000
1000
,  // measure 90
0100
0000
0000
0100
0000
0000
0010
0000
0000
0001
0000
0000
1000
0000
0000
0100
,  // measure 91
0000
0001
0010
0000
0100
0001
0000
1000
,  // measure 92
0100
0000
0000
0000
0010
0100
0001
1000
,  // measure 93
0001
0010
0000
0100
0001
0000
1000
0100
,  // measure 94
0010
0000
0000
0001
0000
0000
0010
0000
0000
0100
0000
0000
1000
0000
0000
0001
,  // measure 95
0000
0000
0000
0000
0000
0000
0010
0100
0001
0000
1000
0100
0002
0000
0000
0000
,  // measure 96
0000
0000
0000
0000
,  // measure 97
0000
0000
0000
0000
0003
0000
0100
0001
1000
0000
0010
0000
0001
0000
0100
0000
,  // measure 98
0020
0000
0000
0000
,  // measure 99
0000
0000
0000
0000
0030
0000
1000
0001
0100
0000
0010
0000
0100
0000
0001
0000
,  // measure 100
0002
0000
0000
0000
,  // measure 101
0000
0000
0000
0000
0003
0000
0001
0100
0010
0000
1000
0000
0001
0000
0100
0000
,  // measure 102
2002
0000
0000
0000
,  // measure 103
0000
0000
0000
0000
,  // measure 104
0000
0000
0000
0000
,  // measure 105
0000
0000
0000
3003
,  // measure 106
0020
0000
0000
0000
,  // measure 107
0000
0000
0000
0030
,  // measure 108
0200
0000
0000
0000
,  // measure 109
0000
0000
0000
0300
,  // measure 110
0002
0000
0000
0000
,  // measure 111
0000
0000
0000
0003
,  // measure 112
0000
0000
0000
0000
0000
0000
0100
0001
1000
0000
0100
0000
0001
0000
0010
0000
,  // measure 113
0100
0000
0000
0010
0000
0000
0001
0000
0000
0100
0000
0000
0010
0001
1000
0100
,  // measure 114
0001
0010
0000
0001
0000
0000
0100
0001
1000
0000
0010
0000
0001
0000
0100
0000
,  // measure 115
1000
0100
0000
0001
0000
0000
0010
0000
0000
0010
0000
0000
0100
0001
0010
0100
,  // measure 116
1000
0001
0010
0000
0100
0000
0001
1000
0100
0000
0010
0000
0001
0000
0100
0000
,  // measure 117
1000
0000
0001
0100
0010
0000
0001
0100
1000
0000
0001
0100
0010
0000
0001
0100
,  // measure 118
2000
0000
0000
0000
,  // measure 119
0000
0000
0000
3000
,  // measure 120
1000
0000
0000
0100
0001
0010
0100
0000
0001
0000
1000
0000
0100
0000
0000
0000
,  // measure 121
0000
0000
0000
0100
,  // measure 122
0000
0000
0000
0001
0010
0100
0001
0000
1000
0000
0001
0000
0100
0000
0010
0000
,  // measure 123
0000
0010
0001
0000
0100
0010
0000
0100
,  // measure 124
0001
0000
0000
1000
0100
0001
0010
0000
0100
0000
0001
0000
1000
0000
0000
0000
,  // measure 125
0000
0000
0000
0000
0000
0000
0100
0001
1000
0000
0010
0000
0001
0000
0100
0000
,  // measure 126
1000
0000
0000
0100
0001
1000
0001
0000
0010
0000
0100
0000
0001
0000
0000
0000
,  // measure 127
0000
0000
0000
0000
0000
0000
0000
0000
0000
0000
0000
1000
0100
0001
1000
0000
,  // measure 128
0001
0000
0010
0000
0000
0000
1000
0000
0100
0000
0000
0001
0000
0010
0100
0000
,  // measure 129
0001
0000
0000
0000
1000
0000
0000
0000
0000
0000
0000
0000
0100
0001
1000
0000
,  // measure 130
0100
0000
0001
1000
0000
0000
0100
0000
0001
0100
0000
0000
0010
0000
0100
0000
,  // measure 131
0000
0000
0000
0000
0000
0000
0000
0000
0000
0000
0000
1000
0100
0001
0100
0000
,  // measure 132
0010
0000
0100
0000
0000
0000
0001
0000
1000
0000
0000
0100
0000
0001
1000
0000
,  // measure 133
0100
0000
0000
0000
0000
0000
0000
0000
0000
0000
0000
0000
0010
0000
0000
0000
0000
0000
0100
0000
0000
0001
0000
0000
1000
0000
0000
0000
1000
0000
0000
0000
1000
0000
0000
0000
0001
0000
0000
0000
0001
0000
0000
0000
0001
0000
0000
0000
,  // measure 134
0000
0100
0001
0000
1000
0100
0000
0001
,  // measure 135
0010
0000
2002
0000
,  // measure 136
0000
0000
0000
0000
3003
0000
0001
0000
0100
0000
0010
0100
0001
0000
1000
0100
,  // measure 137
0001
0010
0100
0010
0100
0001
0100
0010
0001
1000
0001
0100
1000
0010
0000
0000
,  // measure 138
0001
0100
0010
0001
1000
0001
0100
0010
0001
1000
0001
0100
1000
0001
0000
0000
,  // measure 139
0010
0001
0100
0001
0100
0010
0001
1000
0001
0100
0010
0001
1000
0100
0000
0000
,  // measure 140
0100
0010
0001
1000
0001
0100
0010
0001
1000
0001
0100
0001
1000
0100
0100
0010
,  // measure 141
0001
0100
0010
0100
0001
0100
0010
0001
1000
0001
0100
0001
1000
0100
0000
0000
,  // measure 142
0001
0100
0010
0001
1000
0001
0100
0010
0001
1000
0001
0100
0010
0100
1000
0001
,  // measure 143
0010
0010
0100
0001
0100
0001
0100
0010
0001
1000
0001
0100
1000
0000
0000
0000
,  // measure 144
0001
0100
0010
0001
1000
0001
0100
0010
0001
1000
0001
0100
1000
0000
0000
0000
,  // measure 145
0010
0000
0000
0000
1000
0000
0001
0000
0100
0001
0000
0010
0000
0000
0000
0001
,  // measure 146
1000
0000
0010
0000
0001
0000
0100
0001
1000
0000
0010
0000
0100
0000
0001
0000
,  // measure 147
0010
0010
0001
1000
0001
0100
1000
0000
,  // measure 148
0000
0010
0001
0000
0100
0010
0000
0001
,  // measure 149
0100
0010
0001
1000
0001
0100
1000
0000
,  // measure 150
0000
0000
0000
0000
0000
0000
1000
0100
0001
0000
0010
0000
0100
0000
0001
0000
,  // measure 151
1000
0100
0000
0001
,  // measure 152
0000
0000
0000
0000
0000
0000
0000
0000
1000
0001
1000
0001
0010
0000
0000
0000
,  // measure 153
0001
0000
0000
0100
0000
0000
0000
0000
0010
0000
0000
0001
0000
0000
0000
0000
,  // measure 154
0100
0000
0000
0010
0000
0000
0000
0000
1000
0000
0000
0001
0000
0000
0000
0000
,  // measure 155
0001
0000
0000
0100
0000
0000
0000
0000
0010
0000
0000
0001
0000
0000
0000
0000
,  // measure 156
0001
0000
0000
0100
0000
0000
0000
0000
0010
0000
0000
0001
0000
0000
0000
0000
,  // measure 157
0001
0000
0000
0100
0000
0000
0000
0000
0010
0000
0000
0001
0000
0000
0000
0000
,  // measure 158
0001
0000
0000
0100
0000
0000
0000
0000
0010
0000
0000
0001
0000
0000
0000
0000
,  // measure 159
0001
0000
0000
0100
0000
0000
0000
0000
0010
0000
0000
0001
0000
0000
0000
0000
,  // measure 160
0001
0000
0000
0100
0000
0000
0000
0000
0010
0000
0000
0001
0000
0000
0000
0000
;
