#VERSION:0.83;
#TITLE:daydreams;
#SUBTITLE:;
#ARTIST:Wuki & Allegra Miles;
#TITLETRANSLIT:;
#SUBTITLETRANSLIT:;
#ARTISTTRANSLIT:;
#GENRE:;
#ORIGIN:;
#CREDIT:;
#BANNER:;
#BACKGROUND:;
#PREVIEWVID:;
#JACKET:;
#CDIMAGE:;
#DISCIMAGE:;
#LYRICSPATH:;
#CDTITLE:;
#MUSIC:Daydreams.ogg;
#OFFSET:0.000000;
#SAMPLESTART:100.059883;
#SAMPLELENGTH:12.000000;
#SELECTABLE:YES;
#BPMS:0.000=130.000;
#STOPS:0.000=0.900;
#DELAYS:;
#WARPS:;
#TIMESIGNATURES:0.000=4=4;
#TICKCOUNTS:0.000=4;
#COMBOS:0.000=1;
#SPEEDS:0.000=1.000=0.000=0;
#SCROLLS:0.000=1.000;
#FAKES:;
#LABELS:0.000=Song Start;
#BGCHANGES:;
#KEYSOUNDS:;
#ATTACKS:
;

//---------------dance-single - ----------------
#NOTEDATA:;
#CHARTNAME:;
#STEPSTYPE:dance-single;
#DESCRIPTION:;
#CHARTSTYLE:;
#DIFFICULTY:Hard;
#METER:11;
#RADARVALUES:0.399428,0.512395,0.048945,0.055063,0.091772,457.000000,449.000000,8.000000,9.000000,0.000000,0.000000,0.000000,0.000000,0.000000,0.399428,0.512395,0.048945,0.055063,0.091772,457.000000,449.000000,8.000000,9.000000,0.000000,0.000000,0.000000,0.000000,0.000000;
#CREDIT:;
#NOTES:
// measure 0
0000
0000
0000
0000
,  // measure 1
0000
0000
0000
0000
,  // measure 2
0000
0000
0000
0000
,  // measure 3
0000
0000
0000
0000
,  // measure 4
0000
0000
0001
0100
,  // measure 5
0000
0000
0001
0100
,  // measure 6
0000
0000
0010
0100
,  // measure 7
0220
0000
0000
0330
,  // measure 8
0101
0000
0100
0000
0010
0001
0100
0000
,  // measure 9
0010
0000
0001
0000
0100
0010
0001
0000
,  // measure 10
0100
0000
0010
0000
0001
0100
1000
0000
,  // measure 11
0001
0100
0010
0000
0001
1000
0100
0000
,  // measure 12
0100
0000
0010
0000
0001
0100
1000
0000
,  // measure 13
0100
0000
0010
0000
0001
0100
0001
0000
,  // measure 14
0100
0000
0010
0000
0001
0100
1000
0000
,  // measure 15
0001
0100
0010
0000
0000
0200
0000
0300
,  // measure 16
0110
0010
0001
1000
0001
0100
0001
0000
,  // measure 17
0100
0010
0001
0100
0001
0100
1000
0000
,  // measure 18
0100
0010
0001
0100
0001
0100
1000
0000
,  // measure 19
0100
0000
0010
0000
0100
0001
0010
0100
0001
0000
0100
0000
1000
0000
0000
0000
,  // measure 20
0110
0001
0100
0001
1000
0001
0010
0000
,  // measure 21
0100
0010
0001
0100
0001
0100
1000
0000
,  // measure 22
0100
0010
0001
1000
0001
0100
0010
0000
,  // measure 23
2002
0000
0000
3003
,  // measure 24
0000
0000
0100
0001
,  // measure 25
0000
0000
0000
1000
0100
0000
0100
0000
,  // measure 26
0000
0000
0000
0000
1000
0001
0100
0010
,  // measure 27
0100
0001
0010
0001
1000
0000
0100
0000
,  // measure 28
0101
0000
0100
1000
,  // measure 29
0000
0000
0001
0100
,  // measure 30
0000
0000
0000
0000
0010
0001
0100
0010
,  // measure 31
0001
1000
0001
0100
0001
0010
0100
0000
,  // measure 32
0100
0010
0001
0100
0001
0100
1000
0000
,  // measure 33
0100
0010
0001
0100
0001
0100
1000
0000
,  // measure 34
0100
0010
0001
0100
0001
0100
1000
0010
,  // measure 35
0100
0001
1000
0001
0010
0100
0001
0000
,  // measure 36
0110
0001
0010
0100
0001
0100
1000
0000
,  // measure 37
0001
0100
0010
0100
0001
0100
1000
0000
,  // measure 38
0100
0001
0100
0001
0010
0100
0001
1000
,  // measure 39
0001
0010
0100
0001
0100
0001
0010
0000
,  // measure 40
1000
0000
0100
0001
0000
0010
0100
0000
0001
0010
0000
0000
0010
0000
0000
0000
,  // measure 41
0100
0010
0001
0100
0001
0100
1000
0000
,  // measure 42
0010
0000
0001
0100
0000
0010
0100
0000
0001
1000
0000
0000
0100
0000
0000
0000
,  // measure 43
0001
0100
0001
0100
0010
0000
1001
0000
,  // measure 44
0010
0001
0100
0010
,  // measure 45
0001
0100
0010
0001
,  // measure 46
1000
0001
0100
0010
,  // measure 47
0001
0100
0001
0100
,  // measure 48
0010
0100
0001
1000
,  // measure 49
0001
0010
0100
0010
,  // measure 50
0100
0010
0001
0100
0001
0100
0010
0001
,  // measure 51
0100
0001
0100
0010
0001
0100
0001
0100
,  // measure 52
2000
3000
0001
0100
,  // measure 53
0020
0030
0100
0010
,  // measure 54
0020
0000
0030
0000
0100
0010
0001
0100
,  // measure 55
0001
0100
0001
1000
0100
0000
0100
0000
,  // measure 56
0010
0100
0001
0000
1000
0000
0001
0000
,  // measure 57
0200
0300
0010
0100
,  // measure 58
0010
0100
0001
0000
0100
0010
0001
1000
,  // measure 59
0001
0100
0010
0001
0100
0000
0010
0000
,  // measure 60
0100
0010
0001
0100
,  // measure 61
0001
0100
0010
0001
,  // measure 62
0100
0001
1000
0100
,  // measure 63
0010
0100
0001
1000
,  // measure 64
0001
0010
0010
0001
,  // measure 65
1000
0001
0001
0100
,  // measure 66
0001
0100
0010
0001
,  // measure 67
1000
0100
0000
0001
0010
0000
0100
0001
0000
1000
0100
0000
0001
0010
0100
0001
,  // measure 68
0100
0000
0010
0100
0000
0001
1000
0000
0100
0000
0000
0000
0010
0000
0000
0000
,  // measure 69
0100
0001
0010
0100
1000
0000
0001
0000
,  // measure 70
1000
0000
0100
0001
0000
0010
0100
0000
0001
0000
0010
0000
0100
0000
0010
0000
,  // measure 71
0001
0100
0001
0100
1000
0000
0100
0000
,  // measure 72
0010
0000
0100
0001
0000
1000
0100
0000
0001
0000
0000
0000
0010
0000
0000
0000
,  // measure 73
0100
0010
0001
0100
0001
0000
0100
0000
,  // measure 74
0010
0000
0001
0100
0000
0010
0100
0000
0001
0000
1000
0000
0100
0000
0001
0000
,  // measure 75
0100
0001
0010
0100
0001
0000
0010
0000
,  // measure 76
1000
0000
0100
0001
0000
0010
0100
0000
0001
0000
0000
0000
1000
0000
0000
0000
,  // measure 77
0100
0010
0100
0001
1000
0100
0001
0000
,  // measure 78
0100
0000
0010
0100
0000
0001
1000
0000
0100
0000
0010
0000
0100
0000
0001
0000
,  // measure 79
1000
0001
0010
0100
0001
0000
0010
0000
,  // measure 80
0010
0000
0001
0100
0000
0010
0001
0000
1000
0000
0000
0000
0100
0000
0000
0000
,  // measure 81
0100
0010
0001
0100
1000
0010
0010
0000
,  // measure 82
0100
0000
0010
0100
0000
0001
1000
0000
0010
0000
0001
0000
0100
0000
0001
0000
,  // measure 83
0100
0010
0001
1000
0001
0000
0100
0000
;
