#VERSION:0.83;
#TITLE:duet;
#SUBTITLE:;
#ARTIST:Zico & Lilas (Ikaru From YOASOBI);
#TITLETRANSLIT:;
#SUBTITLETRANSLIT:;
#ARTISTTRANSLIT:;
#GENRE:;
#ORIGIN:;
#CREDIT:;
#BANNER:;
#BACKGROUND:;
#PREVIEWVID:;
#JACKET:;
#CDIMAGE:;
#DISCIMAGE:;
#LYRICSPATH:;
#CDTITLE:;
#MUSIC:duet.ogg;
#OFFSET:0.000000;
#SAMPLESTART:100.059883;
#SAMPLELENGTH:12.000000;
#SELECTABLE:YES;
#BPMS:0.000=140.000;
#STOPS:0.000=0.100;
#DELAYS:;
#WARPS:;
#TIMESIGNATURES:0.000=4=4;
#TICKCOUNTS:0.000=4;
#COMBOS:0.000=1;
#SPEEDS:0.000=1.000=0.000=0;
#SCROLLS:0.000=1.000;
#FAKES:;
#LABELS:0.000=Song Start;
#BGCHANGES:0.000=duet.mp4=1.000=0=0=1=====,
99999=-nosongbg-=1.000=0=0=0 // don't automatically add -songbackground-
;
#KEYSOUNDS:;
#ATTACKS:
;

//---------------dance-single - ----------------
#NOTEDATA:;
#CHARTNAME:;
#STEPSTYPE:dance-single;
#DESCRIPTION:;
#CHARTSTYLE:;
#DIFFICULTY:Hard;
#METER:12;
#RADARVALUES:0.464003,0.544855,0.028244,0.022595,0.268315,575.000000,570.000000,5.000000,4.000000,0.000000,0.000000,0.000000,0.000000,0.000000,0.464003,0.544855,0.028244,0.022595,0.268315,575.000000,570.000000,5.000000,4.000000,0.000000,0.000000,0.000000,0.000000,0.000000;
#CREDIT:;
#NOTES:
// measure 0
0000
0000
0000
0000
,  // measure 1
0000
0000
0000
0000
,  // measure 2
0000
0000
0000
0000
,  // measure 3
0000
0000
0000
0000
,  // measure 4
0001
0000
0100
0000
0010
0001
0100
0000
,  // measure 5
0100
0000
0000
0001
0000
0010
0000
0000
0100
0000
0001
0000
0010
0000
0000
0000
,  // measure 6
0100
0000
0010
0000
0100
0001
0100
0000
,  // measure 7
1000
0100
0010
0001
,  // measure 8
0100
0000
0000
0000
0010
0000
0000
0000
0001
0000
0000
0100
1000
0000
0000
0000
,  // measure 9
0001
0000
0000
0010
0100
0000
0001
0000
0010
0000
0000
0000
0100
0000
0001
0000
,  // measure 10
0100
0000
0000
0000
0010
0000
1000
0001
0100
0000
0000
0000
0010
0001
1000
0000
,  // measure 11
0100
0100
0001
0010
,  // measure 12
0001
0000
0000
0000
0010
0000
0100
0000
1000
0000
0100
0001
0000
0000
0000
0000
,  // measure 13
0100
0001
1000
0000
0100
0000
0001
0010
0100
0000
0001
0010
0000
0000
0000
0000
,  // measure 14
0001
0000
1000
0000
0001
0000
0100
0000
0010
0000
0001
0100
0000
0000
1000
0100
,  // measure 15
0001
0000
0010
0100
0001
0000
0001
0100
1000
0000
0010
0100
0000
0000
0000
0000
,  // measure 16
0100
0000
0010
0000
1000
0100
0001
0100
0001
0000
0000
0010
0000
0000
0100
0000
,  // measure 17
0000
0000
1000
0100
0001
0100
0001
0010
0100
0000
0000
0001
0000
0000
0010
0000
,  // measure 18
0010
0000
1000
0001
0100
0000
0001
0100
0010
0000
0100
0001
0000
0010
0100
0000
,  // measure 19
0010
0000
0100
1000
0000
0001
0100
0001
0010
0000
0000
0010
0000
0000
0001
0000
,  // measure 20
0100
0000
0001
0000
0100
0000
0010
0000
0001
0000
0000
0100
1000
0000
0000
0000
,  // measure 21
0100
0001
0100
1000
0001
0000
0100
0000
,  // measure 22
0010
0100
0001
0100
0010
0000
1000
0001
,  // measure 23
0100
0001
0100
0010
0100
0001
1000
0000
,  // measure 24
0010
0100
0001
1000
0100
0000
0010
0000
,  // measure 25
0001
0100
0001
0100
1000
0000
0100
0000
,  // measure 26
0001
0000
1000
0000
0100
0000
0001
0000
0010
0000
0000
0100
0000
0000
0001
0000
,  // measure 27
1001
0000
0000
0010
0001
1000
0100
0010
,  // measure 28
0000
0000
0020
0000
0030
0100
0001
1000
,  // measure 29
0000
0010
0001
0100
0001
1000
0100
0010
,  // measure 30
0000
0001
0200
0000
0300
0010
0001
0100
,  // measure 31
0000
0010
0001
1000
0001
0100
1000
0000
,  // measure 32
0001
0100
0001
0100
0010
0001
1000
0001
,  // measure 33
0100
0010
0001
0100
0001
0100
1000
0000
,  // measure 34
0001
0100
0001
1000
0100
0000
0100
0010
,  // measure 35
0001
0000
0000
0100
0000
0000
0010
0000
0001
0000
0000
0100
0000
0000
0000
0000
,  // measure 36
0100
0000
0010
0000
0001
0000
0100
0000
0001
0000
0100
0000
1000
0000
0010
0100
,  // measure 37
0001
0010
1000
0000
,  // measure 38
0100
0010
0001
1000
0001
0100
1000
0000
,  // measure 39
0001
0100
0001
0100
0010
0000
1001
0000
,  // measure 40
0010
0000
0100
0000
0001
0000
1000
0000
0001
0000
0010
0000
0010
0000
0001
0100
,  // measure 41
1000
0000
0010
0000
0001
0000
0100
0000
1000
0000
0000
0000
0001
0100
0001
1000
,  // measure 42
0100
0001
0100
0001
0100
0000
1000
0000
,  // measure 43
0001
0100
0001
0100
,  // measure 44
0100
0001
1000
0000
0100
0000
0001
0000
0010
0100
0001
1000
0100
0000
0000
0000
,  // measure 45
0010
0001
1000
0001
0100
0000
0100
0000
0000
0000
0000
0000
0000
0000
1000
0000
,  // measure 46
0100
0001
0100
0000
0010
0000
0001
0100
1000
0100
0001
0010
0100
0010
0001
0100
,  // measure 47
1000
0000
0010
0100
0001
0000
1000
0100
0000
0000
0010
0000
0000
0000
0100
0000
,  // measure 48
0010
0001
0100
0001
0000
0100
1000
0010
,  // measure 49
0100
0001
0100
1000
0000
0001
0100
0010
,  // measure 50
1000
0100
0001
0100
0001
0000
0010
0100
0001
1000
0100
0000
0001
0100
1000
0000
,  // measure 51
0100
0001
0010
0000
0100
0000
0001
1000
0000
0000
0100
0000
0010
0000
0100
0000
,  // measure 52
0000
0000
0010
0000
0001
0000
0100
0000
0001
0000
0000
1000
0100
0000
0000
0000
,  // measure 53
0001
0100
0001
0100
1000
0000
0100
0000
,  // measure 54
0010
0000
0001
0000
1000
0000
0001
0000
0100
0000
0000
0100
1000
0000
0001
0000
,  // measure 55
0001
1000
0001
0100
1000
0010
0100
0000
,  // measure 56
0100
0000
0010
0000
0001
0000
0100
0000
0001
0000
0000
1000
0100
0000
0000
0000
,  // measure 57
0100
0010
0001
1000
0001
0000
0100
0010
,  // measure 58
0000
0000
1000
0000
0100
0001
0010
0000
1000
0000
0000
0001
0000
0000
0010
0000
,  // measure 59
0100
0000
0010
0000
0000
0000
0010
0000
0001
0010
0100
0000
1000
0000
0010
0000
,  // measure 60
0000
0000
0200
0000
0300
0010
0100
0001
,  // measure 61
0010
0100
0010
0001
0100
0001
1000
0100
,  // measure 62
0000
0100
0002
0000
0003
0010
0100
0001
,  // measure 63
0000
0001
1000
0001
0100
0001
1000
0000
,  // measure 64
0001
0100
0010
0100
0001
0100
0010
0001
,  // measure 65
1000
0001
0100
0010
0100
1000
0001
0000
,  // measure 66
0001
0100
0001
0100
1000
0000
0000
0100
,  // measure 67
0001
0000
0000
0100
0000
0000
0010
0000
0100
0001
0000
0010
0001
0000
0010
0000
,  // measure 68
0100
0010
0001
1000
0001
0100
1000
0100
,  // measure 69
0010
0000
0000
0100
0001
0000
0000
0000
0010
0000
0000
0000
0000
0000
0000
0000
,  // measure 70
0001
0100
0010
0001
0100
0001
0100
0000
,  // measure 71
1000
0010
0001
0100
1000
0000
0101
0000
,  // measure 72
0100
0000
0010
0000
0001
0000
1000
0000
0001
0000
0100
0000
1000
0000
0100
0001
,  // measure 73
0010
0000
0100
0000
0001
0000
0100
0000
1000
0000
0000
0000
0100
0001
1000
0100
,  // measure 74
0010
0000
0001
1000
0001
0100
1000
0000
,  // measure 75
0100
1000
0001
0100
,  // measure 76
0010
0000
0000
0000
0100
0000
0001
0000
0010
0000
0000
0001
0000
0000
0010
0100
,  // measure 77
0001
0000
0000
0010
0000
0100
0001
1000
0001
0000
0000
1000
0100
0000
0000
0001
,  // measure 78
0010
0000
0001
0100
1000
0000
0000
0110
,  // measure 79
0010
0000
0000
0001
0000
1000
0100
0001
0010
0000
0100
0000
0001
1000
0100
0001
,  // measure 80
0010
0000
0000
0000
0001
0000
0100
0000
1000
0000
0000
0010
0000
0000
0010
0100
,  // measure 81
0001
0000
0000
1000
0000
0100
0001
0010
0100
0000
0000
0001
0010
0100
0001
1000
,  // measure 82
0001
0000
0000
0000
0001
0000
0100
0000
1000
0000
0000
0001
0000
0000
0110
0000
,  // measure 83
0001
0000
0000
1000
0000
0100
0001
0100
0001
0000
0010
0000
0100
0000
1000
0000
;
