#TITLE:cute girls online;
#SUBTITLE:;
#ARTIST:Eli Wan;
#TITLETRANSLIT:;
#SUBTITLETRANSLIT:;
#ARTISTTRANSLIT:;
#GENRE:;
#CREDIT:;
#BANNER:;
#BACKGROUND:;
#LYRICSPATH:;
#CDTITLE:;
#MUSIC:cute girls online [zPh6RwWShR8].ogg;
#OFFSET:0.000000;
#SAMPLESTART:100.059883;
#SAMPLELENGTH:12.000000;
#SELECTABLE:YES;
#BPMS:0.000000=150.000000
;
#STOPS:
;
#BGCHANGES:;
#KEYSOUNDS:;
#ATTACKS:;

//---------------dance-single - ----------------
#NOTES:
     dance-single:
     :
     Hard:
     12:
     0.566161,0.715649,0.501881,0.103837,0.086531,687.000000,600.000000,87.000000,18.000000,0.000000,0.000000,0.566161,0.715649,0.501881,0.103837,0.086531,687.000000,600.000000,87.000000,18.000000,0.000000,0.000000:
// measure 0
0000
0000
0000
0000
,  // measure 1
0000
0000
0000
0000
,  // measure 2
0000
0000
0000
0000
,  // measure 3
0000
0000
0000
0000
,  // measure 4
0011
1001
0110
0011
,  // measure 5
1001
0000
0100
0001
0100
0001
0011
0000
,  // measure 6
0011
0011
0110
0011
,  // measure 7
0100
0010
0001
1000
0001
0100
1001
0000
,  // measure 8
1001
0011
0101
0011
,  // measure 9
0100
0010
0001
0100
0001
0100
1001
0000
,  // measure 10
0011
0110
0011
0110
,  // measure 11
0011
0000
0001
0100
0001
1000
0101
0000
,  // measure 12
0101
0101
0011
0101
,  // measure 13
0011
0000
0001
0100
0001
0100
1010
0000
,  // measure 14
0110
0000
1010
0001
0110
0000
0110
0000
,  // measure 15
0110
0000
0001
0100
0001
0100
1010
0000
,  // measure 16
0011
0011
0110
0011
,  // measure 17
0101
0000
0011
0000
0001
1000
0110
0000
,  // measure 18
0011
1010
0011
0110
,  // measure 19
0110
0000
0001
0100
0001
1000
0110
0000
,  // measure 20
0020
0000
0000
0000
,  // measure 21
0000
0000
0000
0000
0030
0000
0100
0001
,  // measure 22
0020
0100
0100
0100
,  // measure 23
0100
0000
0030
0010
0100
0001
1000
0001
,  // measure 24
0020
0000
0000
0200
,  // measure 25
0000
0000
0330
0100
,  // measure 26
0001
0000
0100
0001
1000
0001
0010
0100
,  // measure 27
0001
0100
0010
0100
0001
1000
0100
0000
,  // measure 28
0000
0000
0110
0110
,  // measure 29
0220
0000
0330
0010
1000
0001
0100
0000
,  // measure 30
0020
0000
0030
0000
0101
0000
1000
0100
,  // measure 31
0011
0000
0100
0010
0001
0100
2002
0000
,  // measure 32
0000
0000
3003
0000
0100
0001
0220
0000
,  // measure 33
0000
0000
0330
0100
0001
1000
0011
0000
,  // measure 34
0000
0000
0100
0010
0101
0000
0110
0000
,  // measure 35
0101
0000
0100
0010
0110
0000
0101
0000
,  // measure 36
0000
0000
0101
0000
0100
0010
0001
0000
,  // measure 37
0110
0000
0101
0000
0010
0100
0110
0000
,  // measure 38
0110
0110
1100
0110
,  // measure 39
0110
0000
0101
0000
0001
0010
1100
0000
,  // measure 40
0110
1100
0110
0101
,  // measure 41
0100
0000
0000
0001
0000
0000
0010
0000
0100
0000
0010
0000
0100
0000
0000
0000
,  // measure 42
0000
1100
0110
0101
,  // measure 43
0101
0000
0110
0000
0001
0100
1000
0000
,  // measure 44
0020
0000
0000
0000
,  // measure 45
0000
0000
0000
0000
0030
0000
0001
0100
,  // measure 46
2000
0100
0100
0100
,  // measure 47
0100
0000
3100
0000
0000
0001
1000
0001
,  // measure 48
0200
0000
0000
0020
,  // measure 49
0000
0000
0330
1000
,  // measure 50
0100
0000
0010
0100
0001
1000
0001
0010
,  // measure 51
0001
0100
0001
0100
0010
0001
1000
0001
,  // measure 52
0220
0000
0330
0100
0011
0000
0110
0000
,  // measure 53
0000
0000
0100
0010
0100
0000
0001
0010
,  // measure 54
0000
0000
0010
0001
0100
0000
1000
0000
,  // measure 55
0000
1100
0110
0101
,  // measure 56
0000
0000
0000
0010
0001
0000
0100
0000
,  // measure 57
0000
0000
0000
0000
0100
0010
0100
0002
,  // measure 58
0000
0000
0000
0000
,  // measure 59
0003
0000
0010
0000
0100
0001
1000
0001
,  // measure 60
0100
0010
0001
0100
0001
0100
0010
0001
,  // measure 61
1000
0001
0100
0010
0001
0100
0001
1000
,  // measure 62
0100
0100
0010
0001
0100
0010
0001
0100
,  // measure 63
0001
1000
0100
0010
0001
0100
0001
0100
,  // measure 64
1000
0010
0100
0001
1000
0001
0010
0100
,  // measure 65
0001
0100
0001
0010
0100
0001
1000
0001
,  // measure 66
0010
0100
0001
0010
0001
0100
0010
0001
,  // measure 67
0100
0000
0001
0000
0100
0000
0010
0000
0001
0000
0100
0010
0001
0000
0100
0000
,  // measure 68
1001
0100
0010
0100
0001
1000
0001
0010
,  // measure 69
0100
0001
0100
0001
0100
0010
0100
0001
,  // measure 70
1000
0100
0001
0100
0001
0100
0010
0001
,  // measure 71
0100
0000
0001
0000
0100
0000
0010
0000
0100
0000
0001
0000
0100
0000
0010
1000
,  // measure 72
0001
1000
0001
0100
0010
0001
0100
0001
,  // measure 73
0100
0100
0010
0010
0100
0001
0001
0100
,  // measure 74
0001
0100
0010
0001
0100
0001
0100
0010
,  // measure 75
0001
0000
1000
0000
0001
0000
0100
0000
0001
0000
0100
0010
0100
1000
0001
0010
,  // measure 76
0100
0010
0100
0010
0001
0100
0001
1000
,  // measure 77
0100
0001
0100
0010
0001
0100
0001
0100
,  // measure 78
1000
0010
0001
1000
0001
0100
0010
0001
,  // measure 79
0100
0001
0100
0010
0001
0100
0001
0100
,  // measure 80
0010
0001
1000
0001
0100
0010
0001
0100
,  // measure 81
0001
0100
0010
0001
0100
0001
0100
0010
,  // measure 82
0001
1000
0001
0100
0010
0001
0100
0001
,  // measure 83
0100
0000
0010
0000
0001
0100
0010
0001
0100
0001
0100
0010
0001
1000
0001
0100
,  // measure 84
1000
0010
0001
0100
0010
0001
0100
0001
,  // measure 85
0100
0000
0010
0000
0100
0000
0001
0000
0100
0000
1000
0000
0001
0000
0100
0010
,  // measure 86
0001
0100
0001
0100
0010
0001
0100
0001
,  // measure 87
0100
0000
0010
0000
0001
0000
1000
0000
0001
0000
0100
0000
0010
0000
1000
0001
,  // measure 88
0100
0100
0100
0010
0001
0100
0001
0100
,  // measure 89
0010
0000
0001
0000
1000
0000
0001
0000
0100
0000
0001
0000
0010
0000
0100
0010
,  // measure 90
1000
0100
0001
0000
0100
0000
0010
0000
0001
0000
0100
0000
0010
0000
0001
0000
,  // measure 91
1000
0000
0001
0000
0100
0000
0010
0000
0001
0000
0100
0000
0010
1000
0001
0100
,  // measure 92
1000
0000
0001
0000
0000
0000
0100
0000
0000
0000
0010
0000
0100
0001
1000
0001
,  // measure 93
0010
0000
0001
0000
0000
0000
1000
0000
0000
0000
0010
0000
0100
0001
0100
0010
,  // measure 94
0100
0010
0100
0000
0000
0000
0100
0000
0000
0000
0010
0000
0000
0000
1000
0100
,  // measure 95
0001
0010
0000
1000
0000
0001
0000
0100
,  // measure 96
0000
0000
0001
0000
0000
0000
0100
0000
0000
0000
0010
0000
0100
0001
1000
0000
,  // measure 97
0000
0100
0000
0010
0000
0001
0000
0100
,  // measure 98
0000
0001
0000
0100
0000
0010
0000
0001
,  // measure 99
0000
0000
0100
0000
0000
0000
0010
0000
0000
0000
0001
0000
0010
0100
0100
0000
,  // measure 100
0000
0000
0001
0000
0000
0000
0100
0000
0000
0000
0010
0000
0000
0000
0100
0001
,  // measure 101
0010
0010
0000
0001
0000
0100
0000
1000
,  // measure 102
0000
0001
0000
0100
0000
0010
0000
0001
,  // measure 103
0000
0000
0100
0000
0000
0000
0010
0000
0000
0000
0001
0000
1000
0100
0010
0000
,  // measure 104
0000
0001
0000
0100
0000
1000
0000
0010
,  // measure 105
0000
0000
0100
0000
0000
0000
0001
0000
0000
0000
0100
0000
0001
0010
0100
0000
,  // measure 106
0000
0010
0000
0001
0000
0100
0000
1000
,  // measure 107
0000
0000
0001
0000
0000
0000
0100
0000
0000
0000
0010
0000
1000
0100
0001
0000
;
