#TITLE:curious;
#SUBTITLE:;
#ARTIST:Sam Gellaitry & Toro Y Moi;
#TITLETRANSLIT:;
#SUBTITLETRANSLIT:;
#ARTISTTRANSLIT:;
#GENRE:;
#CREDIT:;
#BANNER:;
#BACKGROUND:;
#LYRICSPATH:;
#CDTITLE:;
#MUSIC:sam gellaitry - CURIOUS (feat. Toro y Moi) [Official Video].ogg;
#OFFSET:0.000000;
#SAMPLESTART:100.059883;
#SAMPLELENGTH:12.000000;
#SELECTABLE:YES;
#BPMS:0.000000=125.999992
;
#STOPS:0.000000=0.100000
;
#BGCHANGES:0.000=download.mp4=1.000=0=0=1=====,
99999=-nosongbg-=1.000=0=0=0 // don't automatically add -songbackground-
;
#KEYSOUNDS:;
#ATTACKS:;

//---------------dance-single - ----------------
#NOTES:
     dance-single:
     :
     Hard:
     13:
     0.566245,0.589408,0.042367,0.000000,0.155347,842.000000,833.000000,9.000000,0.000000,0.000000,0.000000,0.566245,0.589408,0.042367,0.000000,0.155347,842.000000,833.000000,9.000000,0.000000,0.000000,0.000000:
// measure 0
0000
0000
0000
0000
,  // measure 1
0000
0000
0000
0000
,  // measure 2
0000
0000
0000
0000
,  // measure 3
0010
0000
0100
0001
0100
0010
1000
0100
,  // measure 4
0010
0000
0001
0100
0001
0100
0001
0100
,  // measure 5
1000
0000
0100
0010
0001
0100
0001
0100
,  // measure 6
1000
0000
0001
0100
0001
1000
0100
0000
,  // measure 7
1000
0000
0001
0100
0001
0100
1000
0001
,  // measure 8
0100
0000
0001
0100
0001
0100
1000
0000
,  // measure 9
0100
0000
0001
1000
0100
0001
0100
0001
,  // measure 10
0010
0000
0001
0100
0001
0100
1000
0000
,  // measure 11
0100
0000
0010
0100
0001
0100
1000
0100
,  // measure 12
0010
0000
0000
0000
0001
0000
0100
0010
0001
0000
0100
0000
1000
0100
0001
0000
,  // measure 13
0010
0000
0100
0010
0001
0100
0001
0100
,  // measure 14
1000
0001
0100
0010
0001
0100
0001
0100
,  // measure 15
1000
0100
0001
0100
0010
0100
0001
0100
,  // measure 16
0001
0000
0100
0000
0010
0000
0100
1000
0001
0000
0100
0000
0010
0001
0100
0000
,  // measure 17
0100
0000
0001
1000
0100
0001
0100
0010
,  // measure 18
0100
0100
0010
0100
0001
0100
0001
0100
,  // measure 19
1000
0001
0100
0010
0001
0100
0001
0100
,  // measure 20
1000
0000
0000
0000
0100
0000
0010
0001
0100
0000
0010
0000
0001
1000
0100
0000
,  // measure 21
0010
0001
0100
0010
0001
0100
0001
0100
,  // measure 22
1000
0001
0100
0010
0001
0100
0001
0100
,  // measure 23
1000
0001
0100
0001
0100
0010
0001
1000
,  // measure 24
0001
0000
0100
0000
0010
0000
0001
0100
1000
0000
0100
0000
0010
0001
0100
0000
,  // measure 25
0010
0001
0100
0010
0001
0100
0001
0100
,  // measure 26
1000
0010
0001
0100
0010
0100
0001
0100
,  // measure 27
0001
0100
0001
0100
0001
1000
0001
0100
,  // measure 28
0010
0000
0000
0000
0100
0000
0010
0100
0001
0000
1000
0000
0100
0001
0010
0000
,  // measure 29
0100
0000
0010
0001
1000
0001
0100
0001
,  // measure 30
0100
0000
0001
0100
0001
0100
0001
0100
,  // measure 31
1000
0000
0100
0010
0001
0100
0001
0100
,  // measure 32
1000
0000
0001
0100
0001
0100
1000
0000
,  // measure 33
0000
0100
0010
0001
0100
0001
0100
0001
,  // measure 34
0100
0000
0010
0000
0001
0000
1000
0000
0001
0000
0100
0000
0010
0000
0100
0001
,  // measure 35
1000
0000
0010
0000
0001
0000
0100
0000
0001
0000
0100
0000
0010
0000
0001
0100
,  // measure 36
1000
0000
0100
0000
0010
0000
0001
0100
1000
0000
0010
0000
0100
0001
0010
0000
,  // measure 37
0100
0000
0010
0100
0001
1000
0001
0010
,  // measure 38
0100
0001
0100
0010
0001
0100
0001
0100
,  // measure 39
1000
0010
0001
0100
0010
0100
0001
0100
,  // measure 40
1000
0000
0000
0000
0010
0000
0001
1000
0100
0000
0001
0000
0010
0001
0100
0000
,  // measure 41
0010
0001
0100
0010
0001
0100
0001
0000
,  // measure 42
1000
0000
0001
0100
0001
0100
1000
0000
,  // measure 43
0010
0000
0001
0100
0001
0100
1000
0000
,  // measure 44
0100
0000
0000
1000
0100
0001
0100
0010
,  // measure 45
0100
0001
0100
0010
0001
0100
0001
0100
,  // measure 46
1000
0010
0100
0010
0100
0010
0100
0100
,  // measure 47
1000
0100
0010
0100
0100
0010
0100
0100
,  // measure 48
1000
0010
0001
0100
0001
0100
0001
0000
,  // measure 49
1000
0000
0001
0100
0001
0100
1000
0010
,  // measure 50
0100
0001
0010
0100
0001
0100
0001
0100
,  // measure 51
1000
0001
0100
0010
0001
0100
0001
0100
,  // measure 52
0001
0000
0100
0000
0010
0000
0001
0100
1000
0000
0010
0000
0001
0100
1000
0000
,  // measure 53
0010
0000
0001
1000
0001
0100
0001
0100
,  // measure 54
1000
0100
0010
0100
0001
0100
0001
0100
,  // measure 55
1000
0010
0001
0100
0001
0100
0001
0100
,  // measure 56
1000
0000
0000
0000
0010
0000
0001
1000
0100
0000
0001
0000
0010
0100
0001
0000
,  // measure 57
0100
0010
0001
0100
0001
0100
1000
1000
,  // measure 58
0001
0010
0001
0000
0001
0000
0001
0000
0100
0000
0100
0000
0010
0000
0010
0000
,  // measure 59
0100
0001
1000
1000
0100
0010
0001
0100
,  // measure 60
0001
0000
0100
0001
0010
0000
0001
1000
0100
0000
0010
0000
0100
0001
1000
0000
,  // measure 61
0100
0100
0010
0100
0001
0100
0001
0100
,  // measure 62
1000
0001
0100
0010
0001
1000
0001
0100
,  // measure 63
1000
0010
0001
0100
0010
0001
0100
0001
,  // measure 64
0100
0000
0001
0000
0100
0000
1000
0001
0100
0000
0010
0000
0100
0001
1000
0010
,  // measure 65
0100
0000
0000
0000
0001
1000
0001
0100
,  // measure 66
1000
0000
0010
0000
1000
0001
0100
0000
,  // measure 67
0100
0000
0010
0000
0001
0100
0001
0100
,  // measure 68
1000
0000
0010
0000
0100
0000
0001
0000
0010
0000
0100
0000
0100
0001
1000
0000
,  // measure 69
1000
0000
0000
0001
0100
0000
0100
0000
0100
0000
0010
0000
0001
0000
0100
0000
,  // measure 70
0001
0000
0100
0000
0000
0100
0001
1000
,  // measure 71
0001
0000
0100
0000
0000
0001
0100
1000
,  // measure 72
0000
0000
1000
0000
0100
0000
0010
0000
0000
0000
0100
0000
0010
0001
0100
0000
,  // measure 73
0010
0001
0100
0001
0100
0010
0001
1000
,  // measure 74
0001
0100
0010
0100
0001
0100
0001
0100
,  // measure 75
1001
0000
0100
0010
0110
0000
0001
0100
,  // measure 76
1001
0000
0000
0000
0100
0000
0010
0000
0100
0000
0001
1000
0100
0000
0000
0000
,  // measure 77
0110
0110
0000
0000
1001
1001
0000
0000
,  // measure 78
0101
0000
0101
0000
0000
0000
0010
0000
0000
0001
0100
0000
0000
0000
0000
0000
,  // measure 79
0000
0000
0000
0001
0000
0000
0010
0100
0001
0000
0010
0000
0100
0000
0001
0000
,  // measure 80
0010
0000
0000
0000
0100
0000
0001
1000
0100
0000
0001
0000
0010
0100
0001
0000
,  // measure 81
0010
0000
0001
1000
0001
0100
1000
0000
,  // measure 82
0100
0000
0000
0001
1000
0000
0100
0000
0001
0000
0100
0000
0010
0000
0000
0000
,  // measure 83
0100
0000
0100
0000
0010
0000
0001
0100
1000
0000
0001
0000
0100
0000
0010
0100
,  // measure 84
0001
1000
0100
0000
0010
0000
0100
0000
0001
0000
0100
0000
1000
0000
0100
0001
,  // measure 85
0010
0000
0100
0000
0010
0000
0001
0100
1000
0000
0100
0000
1000
0000
0100
0001
,  // measure 86
1000
0001
0010
0000
1000
0000
0001
0000
0100
0000
0001
0000
0100
0000
0000
0000
,  // measure 87
0010
0000
0100
0000
0001
0000
1000
0100
0001
0000
0010
0000
0100
0000
0010
0100
,  // measure 88
0001
0000
1000
0100
0001
0010
0100
0000
0100
0000
0010
0000
1000
0100
0001
0000
,  // measure 89
0100
0001
1000
0000
0100
0000
0010
0000
0001
0000
0100
0000
1000
0000
0100
0001
,  // measure 90
0010
0000
0001
0100
1000
0000
0100
0000
0001
0000
0100
0000
1000
0000
0100
0000
,  // measure 91
0001
0000
0100
0000
0010
0000
0001
0100
1000
0000
0001
0000
0100
0000
1000
0001
,  // measure 92
0100
0010
0100
0000
0001
0000
1000
0000
0100
0000
0001
0000
0010
0000
0010
0000
,  // measure 93
0001
0000
0100
0000
0010
0000
1000
0100
0001
0000
0010
0000
0100
0000
0001
1000
,  // measure 94
0100
0001
0010
0000
0010
0000
0100
0000
0001
0000
0100
0000
1000
0000
0000
0000
,  // measure 95
0100
0000
0010
0000
0001
0000
1000
0010
0001
0000
0100
0000
1000
0000
0100
0001
,  // measure 96
0010
0000
0100
0001
0010
0001
0100
0000
0010
0000
0001
0000
1000
0000
0001
0000
,  // measure 97
0100
0000
0001
1000
0001
0100
1000
0010
,  // measure 98
0100
0000
0001
0100
0001
0100
1000
0000
,  // measure 99
0001
0000
0100
0010
0001
1000
0001
0100
,  // measure 100
0010
0000
0001
0100
0001
1000
0100
0000
,  // measure 101
0100
0010
0001
1000
0001
0100
1000
0100
,  // measure 102
0010
0001
0100
0001
0100
0001
0100
0100
,  // measure 103
1000
0001
0100
0001
0100
0010
0001
1000
,  // measure 104
0001
0000
0100
0000
0010
0000
0001
1000
0100
0000
0010
0000
0100
0001
0010
0000
,  // measure 105
0010
0001
0100
0010
0001
0100
0001
0100
,  // measure 106
1000
0001
0010
0001
0100
0010
0001
0100
,  // measure 107
0001
0100
0010
0001
0100
0001
0100
0001
,  // measure 108
0100
0000
0010
0000
0001
0000
1000
0010
0001
0000
0100
0000
0010
0001
0100
0000
;
