#TITLE:cupid's chokehold;
#SUBTITLE:;
#ARTIST:Gym Class Heros;
#TITLETRANSLIT:;
#SUBTITLETRANSLIT:;
#ARTISTTRANSLIT:;
#GENRE:;
#CREDIT:;
#BANNER:;
#BACKGROUND:;
#LYRICSPATH:;
#CDTITLE:;
#MUSIC:Gym Class Heroes - Cupid's ChokeholdBreakfast in America Lyrics.ogg;
#OFFSET:0.000000;
#SAMPLESTART:100.059883;
#SAMPLELENGTH:12.000000;
#SELECTABLE:YES;
#BPMS:0.000000=79.500000
,24.000000=80.000000
,132.000000=79.000000
,160.000000=80.000000
,184.000000=77.000000
,196.000000=80.000000
,220.000000=79.000000
,228.000000=80.000000
,248.000000=79.000000
,260.000000=80.000000
;
#STOPS:0.000000=0.200000
;
#BGCHANGES:;
#KEYSOUNDS:;
#ATTACKS:;

//---------------dance-single - ----------------
#NOTES:
     dance-single:
     :
     Hard:
     13:
     0.535079,0.519069,0.016853,0.016853,0.754167,889.000000,885.000000,4.000000,4.000000,0.000000,0.000000,0.535079,0.519069,0.016853,0.016853,0.754167,889.000000,885.000000,4.000000,4.000000,0.000000,0.000000:
// measure 0
0000
0000
0000
0000
,  // measure 1
0000
0000
0000
0000
,  // measure 2
1001
0000
0010
0100
0001
1000
0001
0000
0010
0000
0100
0000
0000
0000
0000
0010
,  // measure 3
0100
0001
1000
0001
1000
0100
0001
0000
0010
0100
0001
1000
0001
0000
0010
0000
,  // measure 4
0100
0000
0001
0000
1000
0100
0001
0000
0100
0000
0001
0000
0000
0000
0000
0100
,  // measure 5
0001
1000
0001
0010
0000
0000
0010
0000
0001
0100
0001
0100
1000
0010
0001
0100
,  // measure 6
0010
0001
1000
0001
0100
0000
0001
0100
1000
0000
0100
0000
0010
0001
1000
0001
,  // measure 7
0100
0000
0001
0100
0010
0000
0001
0010
0000
0000
1000
0100
0001
0010
0100
0000
,  // measure 8
0001
0000
0100
0010
0000
0001
0000
0100
0000
0000
0000
0010
0100
0001
1000
0100
,  // measure 9
0001
0000
1000
0100
0000
0010
0000
0100
0000
0000
0010
0100
0001
0000
1000
0000
,  // measure 10
0110
0000
0001
1000
0001
0100
1000
0000
0001
0000
0100
0000
0000
0010
0100
0010
,  // measure 11
0001
1000
0001
0100
1000
0000
0100
0000
0000
0000
0010
0001
0000
1000
0100
0001
,  // measure 12
0010
0000
0100
0001
0000
1000
0000
0100
0000
0000
0010
0100
0001
1000
0001
0010
,  // measure 13
0100
0000
0010
0100
0100
0001
0100
0010
1000
0100
0001
0100
0001
0000
1000
0100
,  // measure 14
0001
0010
0100
0001
1000
0001
0010
0100
0001
0000
0010
0000
0000
0001
0100
0010
,  // measure 15
0001
0100
0001
0100
0001
1000
0100
0000
0000
0000
0001
0000
0100
1000
0000
0001
,  // measure 16
0000
0100
0010
0001
1000
0001
0100
0010
,  // measure 17
0000
0000
0100
0010
0000
0001
1000
0100
0000
0000
0010
0100
0000
0001
1000
0100
,  // measure 18
0010
0100
0001
1000
0001
0010
0100
0001
0010
0000
0010
0000
0100
0010
0001
0100
,  // measure 19
0001
0100
0001
1000
0100
0000
0001
0000
0000
0000
0000
1000
0100
0010
0000
0100
,  // measure 20
0000
0000
0010
0100
0001
1000
0100
0000
0001
0010
0100
0001
0010
0100
0001
1000
,  // measure 21
0100
0010
0001
0100
0001
0100
0010
0001
1000
0001
0100
0010
0001
0100
0001
0100
,  // measure 22
1000
0000
0100
0001
0100
0001
0010
0000
0100
0000
0010
0000
0100
0000
1000
0010
,  // measure 23
0100
0001
1000
0001
0010
0100
0001
0000
0001
0100
0010
0100
0001
0000
1000
0000
,  // measure 24
0100
0000
0010
0000
0001
0100
1000
0000
0100
0000
0010
0000
1000
0000
0100
0001
,  // measure 25
0010
0100
0001
1000
0001
0010
0100
0000
0100
0010
0001
0100
0001
0100
0001
0100
,  // measure 26
1000
0000
0001
0100
0001
0100
1000
0000
0001
0100
0010
0000
1000
0000
0100
0001
,  // measure 27
0010
0100
0010
0100
0001
0100
1000
0000
0001
0100
0001
0100
1000
0000
0100
0000
,  // measure 28
0010
0000
0100
0000
0001
1000
0100
0000
0001
0000
0100
0000
0010
0000
0001
0100
,  // measure 29
1000
0010
0100
0001
1000
0001
0010
0100
0010
0001
0100
0010
0001
0100
0001
0100
,  // measure 30
1000
0100
0001
0100
0001
0000
0010
0100
0001
0000
0010
0000
0001
0100
1000
0100
,  // measure 31
0010
0000
0000
0000
0000
0000
0100
0000
0000
0001
0000
0000
0010
0000
0000
0000
0000
0000
0100
0000
0000
0000
0000
0000
0000
0000
0000
0010
0000
0000
0100
0000
0000
0001
0000
0000
0010
0000
0100
0000
0001
0000
1000
0000
0001
0000
0010
0000
,  // measure 32
0100
0000
0000
0000
0000
0000
0010
0000
0000
0000
0000
0000
0100
0000
0000
0001
0000
0000
0000
0000
0000
0010
0000
0000
0000
0000
0000
0000
0000
0000
0100
0000
0000
0001
0000
0000
0010
0000
0100
0000
0001
0000
1000
0000
0001
0000
0010
0000
,  // measure 33
0100
0000
0010
0000
1000
0100
0000
0001
0000
0000
1000
0100
0000
0010
0100
0001
,  // measure 34
0010
0000
0100
0010
0001
0100
0001
0100
1000
0000
0100
0000
0000
0100
0001
0100
,  // measure 35
0001
1000
0100
0001
0010
0000
0100
0000
0000
0000
0010
0100
0001
1000
0001
0010
,  // measure 36
0100
0000
0010
0000
0100
0001
0000
0010
0000
0000
0100
0001
0010
0000
0100
0001
,  // measure 37
1000
0000
0100
0000
0001
0010
0000
0100
0001
0100
0001
0100
1000
0010
0100
0001
,  // measure 38
0010
0010
0001
0100
0001
0100
1000
0000
0100
0000
0001
1000
0001
0010
0100
0001
,  // measure 39
0010
0100
1000
0000
0100
0000
0010
0000
0000
0000
0001
0000
0100
1000
0000
0010
,  // measure 40
0000
0100
0001
1000
0001
0010
0100
0001
,  // measure 41
0000
0000
0010
0100
0000
0001
1000
0100
0010
0100
0001
1000
0001
0010
0100
0001
,  // measure 42
0010
1000
0100
0001
0010
0100
0001
0000
1000
0000
0100
0000
0001
0100
0001
0100
,  // measure 43
1000
0100
0001
0010
0100
0000
0010
0000
0000
0000
1000
0100
0001
0100
0001
0010
,  // measure 44
0100
0001
0100
0010
0001
0100
0001
0100
0010
0001
1000
0001
0100
0000
0010
0001
,  // measure 45
0100
0001
0100
0010
0001
0100
0001
0100
1000
0100
0001
0100
0001
0100
0001
0100
,  // measure 46
2000
0000
0000
0100
,  // measure 47
0200
0000
0000
0000
,  // measure 48
0000
3300
2002
3003
,  // measure 49
1001
0000
0100
0001
0100
0001
0100
0000
0100
0000
0001
0000
0100
0000
0010
0001
,  // measure 50
1000
0001
0100
0010
1000
0100
0001
0000
0010
0001
0100
0010
1000
0000
0100
0000
,  // measure 51
0100
0000
0001
0000
0001
0100
1000
0000
0100
0001
0010
0000
0100
0000
0001
1000
,  // measure 52
0100
0010
0001
0100
0001
1000
0100
0000
0010
0001
0100
0010
0001
1000
0001
0100
,  // measure 53
1000
0000
0001
0100
0001
0100
1000
0000
0010
0001
0100
0000
0010
0000
0100
0001
,  // measure 54
1000
0001
0010
0100
0001
1000
0100
0000
0001
0100
0001
0100
1000
0000
0010
0000
,  // measure 55
0100
0000
0001
0000
0010
0100
0001
0000
1000
0010
0100
0000
0001
0000
0100
0010
,  // measure 56
0100
0001
0010
0100
0001
0100
1000
0010
0001
0100
0010
0001
1000
0001
0100
0010
,  // measure 57
1000
0100
0001
0100
0001
0000
1000
0100
0001
0100
0010
0000
0010
0000
0100
0001
,  // measure 58
0010
0100
0001
0000
0010
0000
0001
0100
1000
0000
0001
0000
0100
0000
0000
0000
,  // measure 59
0100
0001
0010
0000
0010
0000
1000
0100
0001
0010
0100
0000
0001
0000
0100
0010
,  // measure 60
0001
1000
0100
0000
0010
0000
0000
0000
0100
0000
0100
0000
0010
0000
0100
0001
,  // measure 61
1000
0000
0100
0000
0000
0001
0100
0010
0100
0010
0100
0001
1000
0100
0010
0001
,  // measure 62
0100
1000
0001
0100
1000
0000
0010
0000
0000
0100
0001
1000
0001
0010
0100
0010
,  // measure 63
1000
0100
0001
0100
0010
0100
1000
0000
0000
0100
0001
1000
0001
0010
1000
0100
,  // measure 64
0001
0010
0010
0001
1000
0001
0100
0010
1000
0010
0100
0010
0001
0100
0010
0100
,  // measure 65
1000
0000
0100
0001
0100
0001
0010
1000
0100
0010
0001
0100
0001
1000
0100
0010
,  // measure 66
0100
0010
0001
1000
0001
0100
1000
0100
0001
0000
1000
0100
0001
0000
0010
0100
,  // measure 67
0001
0000
0001
0010
0100
0000
0100
0001
0000
0010
0100
0001
1000
0000
0001
0000
,  // measure 68
0100
0010
0001
0100
0010
0001
1000
0001
0100
0010
0001
0100
0001
0100
1000
0000
,  // measure 69
0010
0000
0001
0100
0001
0100
1000
0000
1000
0000
0001
0000
0100
0000
0010
0001
,  // measure 70
0100
0010
0001
0100
0001
0100
1000
0000
0010
0001
0100
0001
1000
0000
0100
0000
,  // measure 71
0100
0000
0001
0000
1000
0100
0001
0000
0010
0001
0100
0000
0001
0000
1000
0100
,  // measure 72
0001
0010
0100
0010
0100
0001
1000
0000
0100
0001
0010
0100
0001
0010
0100
0001
,  // measure 73
0100
0000
0010
0100
0001
1000
0100
0000
0010
0100
0001
0000
0010
0000
0001
0100
,  // measure 74
0010
0100
0010
0100
0001
0100
1000
0000
0001
0100
0001
0100
1000
0000
0100
0000
,  // measure 75
0010
0001
0010
0000
0100
0001
0010
0000
0010
0000
0001
0000
1000
0000
0100
0001
,  // measure 76
0100
0001
0010
0100
0001
1000
0100
0000
0010
0001
0100
0010
0001
1000
0001
0100
,  // measure 77
1000
0000
0000
0000
;
