#TITLE:cup of tea;
#SUBTITLE:;
#ARTIST:JAZMIN;
#TITLETRANSLIT:;
#SUBTITLETRANSLIT:;
#ARTISTTRANSLIT:;
#GENRE:;
#CREDIT:;
#BANNER:;
#BACKGROUND:;
#LYRICSPATH:;
#CDTITLE:;
#MUSIC:Cup of Tea.ogg;
#OFFSET:0.000000;
#SAMPLESTART:100.059883;
#SAMPLELENGTH:12.000000;
#SELECTABLE:YES;
#BPMS:0.000000=82.000000
,12.000000=164.000000
,20.000000=83.000000
,44.000000=164.000000
,108.000000=165.000000
,268.000000=83.000000
;
#STOPS:0.000000=1.400000
;
#BGCHANGES:;
#KEYSOUNDS:;
#ATTACKS:;

//---------------dance-single - ----------------
#NOTES:
     dance-single:
     :
     Hard:
     9:
     0.285175,0.502703,0.122844,0.337822,0.092133,260.000000,244.000000,16.000000,44.000000,0.000000,0.000000,0.285175,0.502703,0.122844,0.337822,0.092133,260.000000,244.000000,16.000000,44.000000,0.000000,0.000000:
// measure 0
0000
0000
0000
0000
,  // measure 1
0000
0000
0000
0000
,  // measure 2
0200
0000
0000
0000
0300
0000
0010
0100
,  // measure 3
0001
0001
0100
0010
,  // measure 4
0001
0010
0100
0010
0001
1000
0001
0100
,  // measure 5
2000
0000
0000
0000
0000
0000
0000
0000
3000
0000
1000
0100
0001
0100
0001
0010
,  // measure 6
0200
0000
0000
0000
0000
0000
0000
0000
0300
0000
0100
0010
0001
1000
0001
0100
,  // measure 7
2000
0000
0000
0000
0000
0000
0000
0000
3000
0000
0100
0010
0001
1000
0001
0100
,  // measure 8
2000
0000
0000
0000
0000
0000
0000
0000
3000
0010
0100
0010
0001
1000
0001
0100
,  // measure 9
2000
0000
0000
3000
0100
0001
0010
0000
0000
0010
0100
0001
,  // measure 10
0000
0000
0000
0000
0000
0000
0000
0000
0010
0000
0000
0000
0000
0000
0000
0000
0000
0000
0000
0000
0000
0000
0000
0000
0000
0000
0000
0010
0000
0000
0001
0000
0000
1000
0000
0000
0001
0000
0000
0100
0000
0000
1000
0000
0000
0001
0000
0000
,  // measure 11
0200
0000
0000
0000
,  // measure 12
0300
0010
0100
0010
0001
1000
0001
0100
,  // measure 13
2000
0000
0000
0000
,  // measure 14
3000
0000
0100
0010
0001
1000
0001
0100
,  // measure 15
2000
0000
0200
0000
,  // measure 16
3300
0000
0100
0010
0001
1000
0001
0100
,  // measure 17
2000
0000
0002
0000
,  // measure 18
3003
0100
0001
1000
0001
0010
0001
0100
,  // measure 19
2000
0000
0000
0000
0000
0000
0000
0000
3000
0000
0000
0100
0000
0000
0001
0000
,  // measure 20
0000
1000
0000
0000
0000
0000
0000
0000
0100
0000
0000
0000
0000
0000
0010
0000
,  // measure 21
0000
0220
0000
0000
,  // measure 22
0000
0000
0330
0010
,  // measure 23
0220
0000
0000
0000
,  // measure 24
0000
0000
0330
0001
,  // measure 25
2002
0000
0000
0000
,  // measure 26
0000
0000
3003
0100
,  // measure 27
2200
0000
0000
0000
,  // measure 28
0000
0000
3300
0010
,  // measure 29
0220
0000
0000
0000
,  // measure 30
0000
0000
0330
0001
,  // measure 31
2002
0000
0000
0000
,  // measure 32
0000
0000
0000
0000
3003
0100
0001
0000
,  // measure 33
2002
0000
0000
0000
,  // measure 34
0000
0000
0000
0000
3003
0000
0100
0001
,  // measure 35
0202
0000
0000
0000
,  // measure 36
0000
0303
0001
0100
,  // measure 37
0220
0000
0000
0330
,  // measure 38
0010
0100
0001
1000
0001
0000
0100
0001
,  // measure 39
0020
0000
0000
0030
,  // measure 40
1001
0000
0100
0010
0001
1000
0001
0100
,  // measure 41
1000
0100
0000
0001
0010
0000
0100
0001
,  // measure 42
0000
1000
0100
0010
0001
0100
0001
0100
,  // measure 43
1000
0100
0000
0001
0010
0000
0100
0001
,  // measure 44
0000
1000
0100
0010
0001
0100
0001
0100
,  // measure 45
1000
0010
0000
0001
0100
0000
0010
0001
,  // measure 46
0000
1000
0100
0100
0010
0001
0100
0001
,  // measure 47
1000
0100
0000
0010
0100
0001
0100
0010
,  // measure 48
0000
0010
0100
0000
0010
0000
0100
0000
,  // measure 49
0001
0100
0010
0100
,  // measure 50
0001
0010
0100
0010
,  // measure 51
0220
0000
0000
0000
,  // measure 52
0000
0000
0330
0001
,  // measure 53
2002
0000
0000
0000
,  // measure 54
0000
0000
3003
0001
,  // measure 55
0220
0000
0000
0000
,  // measure 56
0000
0000
0330
1000
,  // measure 57
0100
0000
0000
0001
0010
0001
0100
0000
,  // measure 58
0001
0000
0000
1000
0000
0000
0010
0100
,  // measure 59
0100
0010
0000
0001
0000
0001
0000
0100
,  // measure 60
0000
0010
0000
0000
0000
0001
0100
0000
,  // measure 61
2002
0000
0000
0000
,  // measure 62
0000
0000
0000
0000
3003
0000
0001
0100
,  // measure 63
2200
0000
0000
0000
,  // measure 64
0000
3300
0100
0010
,  // measure 65
0220
0000
0000
0000
,  // measure 66
0000
0000
0000
0330
,  // measure 67
0100
0100
0100
0100
,  // measure 68
0001
0001
0001
0001
,  // measure 69
1000
1000
1000
1000
,  // measure 70
0100
0100
0100
0100
,  // measure 71
0010
0010
0010
0010
,  // measure 72
0100
0100
0100
0100
;
