#VERSION:0.83;
#TITLE:critical;
#SUBTITLE:;
#ARTIST:mra;
#TITLETRANSLIT:;
#SUBTITLETRANSLIT:;
#ARTISTTRANSLIT:;
#GENRE:;
#ORIGIN:;
#CREDIT:;
#BANNER:;
#BACKGROUND:;
#PREVIEWVID:;
#JACKET:;
#CDIMAGE:;
#DISCIMAGE:;
#LYRICSPATH:;
#CDTITLE:;
#MUSIC:Critical.ogg;
#OFFSET:0.000000;
#SAMPLESTART:100.059883;
#SAMPLELENGTH:12.000000;
#SELECTABLE:YES;
#BPMS:0.000=118.000;
#STOPS:0.000=0.200;
#DELAYS:;
#WARPS:;
#TIMESIGNATURES:0.000=4=4;
#TICKCOUNTS:0.000=4;
#COMBOS:0.000=1;
#SPEEDS:0.000=1.000=0.000=0;
#SCROLLS:0.000=1.000;
#FAKES:;
#LABELS:0.000=Song Start;
#BGCHANGES:;
#KEYSOUNDS:;
#ATTACKS:
;

//---------------dance-single - ----------------
#NOTEDATA:;
#CHARTNAME:;
#STEPSTYPE:dance-single;
#DESCRIPTION:;
#CHARTSTYLE:;
#DIFFICULTY:Hard;
#METER:9;
#RADARVALUES:0.343092,0.415502,0.004531,0.154068,0.000000,530.000000,529.000000,1.000000,34.000000,0.000000,0.000000,0.000000,0.000000,0.000000,0.343092,0.415502,0.004531,0.154068,0.000000,530.000000,529.000000,1.000000,34.000000,0.000000,0.000000,0.000000,0.000000,0.000000;
#CREDIT:;
#NOTES:
// measure 0
0000
0000
0000
0000
,  // measure 1
0000
0000
0000
0000
,  // measure 2
0000
0000
0000
0000
,  // measure 3
0000
0000
0000
0000
,  // measure 4
0200
0000
0000
0300
,  // measure 5
0002
0000
0000
0003
,  // measure 6
0020
0000
0000
0000
,  // measure 7
0000
0000
0000
0000
0030
0001
0100
0010
,  // measure 8
2000
0200
0000
0000
,  // measure 9
0000
0000
3300
0100
0010
0100
0000
0001
,  // measure 10
0000
0020
0000
0000
0000
0000
0000
0000
,  // measure 11
0000
0000
0000
0000
0030
0000
0100
0001
,  // measure 12
2000
0200
0000
0000
,  // measure 13
0000
0000
3300
0100
0000
0010
0000
0001
,  // measure 14
0000
0100
0000
0010
0000
0010
0000
0200
,  // measure 15
0000
0000
0000
0000
0300
0001
1000
0100
,  // measure 16
0200
0020
0000
0000
,  // measure 17
0000
0000
0330
0010
0000
0001
0000
0100
,  // measure 18
0000
2000
0000
0000
0000
0000
0000
0000
,  // measure 19
0000
0000
0000
0000
3000
0100
0001
0010
,  // measure 20
0010
0100
0001
0100
,  // measure 21
0000
0000
0000
0010
0000
0001
0000
0100
,  // measure 22
0000
2000
0000
0000
0000
0000
0000
0000
,  // measure 23
0000
0000
0000
0000
3000
0100
1000
0000
,  // measure 24
0200
0000
0000
0300
,  // measure 25
0020
0000
0000
0000
0030
0000
0001
0100
,  // measure 26
1000
0001
0200
0000
0000
0000
0000
0000
,  // measure 27
0000
0000
0000
0000
0300
0000
1000
0100
,  // measure 28
0020
0000
0000
0000
0030
0010
0001
0100
,  // measure 29
2000
0000
0000
0000
3000
0000
1000
0001
,  // measure 30
0010
0100
0002
0000
0000
0000
0000
0000
,  // measure 31
0000
0000
0000
0000
0003
0010
0001
1000
,  // measure 32
0100
0100
0010
0001
1000
0001
0100
0010
,  // measure 33
0001
0100
0001
0100
0010
0001
0100
0001
,  // measure 34
0100
0010
0001
1000
0001
0100
0010
0001
,  // measure 35
0100
0001
0100
0010
0001
0100
0001
0100
,  // measure 36
1000
0100
0010
0100
1000
0100
0010
0001
,  // measure 37
0100
0001
0100
0010
0001
0100
0001
0100
,  // measure 38
1000
0010
0100
0001
0100
0010
0001
1000
,  // measure 39
0001
0100
0010
0001
0100
0001
0100
0010
,  // measure 40
0100
0000
0010
0000
0001
0100
0001
0100
,  // measure 41
2000
0200
0000
0000
,  // measure 42
0000
0000
3300
0001
0000
0100
0000
0010
,  // measure 43
0000
0200
0000
0000
0000
0000
0000
0000
,  // measure 44
0000
0000
0000
0000
0300
0001
1000
0100
,  // measure 45
0010
0001
0100
1000
,  // measure 46
0000
0000
0000
0001
0000
0100
0000
0010
,  // measure 47
0000
0200
0000
0000
0000
0000
0000
0000
,  // measure 48
0000
0000
0000
0000
0300
0100
0010
0100
,  // measure 49
0020
0000
0000
0030
,  // measure 50
0002
0000
0000
0000
0003
0000
0100
0010
,  // measure 51
0001
0100
2000
0000
0000
0000
0000
0000
,  // measure 52
0000
0000
0000
0000
3000
0000
0100
0002
,  // measure 53
0000
0000
0000
0003
0000
0001
0100
1000
,  // measure 54
0020
0000
0000
0000
0000
0030
1000
0001
,  // measure 55
0100
0010
0002
0000
0000
0000
0000
0000
,  // measure 56
0000
0000
0000
0000
0003
0001
0001
0100
,  // measure 57
1000
0010
0100
0010
0100
0010
0100
0010
,  // measure 58
1000
0100
0010
0001
0100
0001
0100
0010
,  // measure 59
0001
0100
0010
0001
1000
0001
0100
0010
,  // measure 60
0100
0001
0100
0010
0001
0100
0001
0100
,  // measure 61
0010
0100
1000
0100
0010
0001
0100
0001
,  // measure 62
0100
0010
0001
1000
0001
0100
0010
0001
,  // measure 63
0100
0001
0100
0010
0001
1000
0001
0100
,  // measure 64
0010
1000
0001
0100
0010
0001
0100
0010
,  // measure 65
0100
0000
0000
0000
1001
0001
0010
0100
,  // measure 66
0001
0000
0000
0001
0100
0000
0100
0001
,  // measure 67
0010
0010
0100
0001
0100
0010
0001
1000
,  // measure 68
0001
0100
0010
0001
0100
0001
0100
0010
,  // measure 69
0100
0010
0100
0010
1000
0100
0010
0001
,  // measure 70
0100
0001
0100
0010
0001
0100
0001
0100
,  // measure 71
0010
0001
0100
0001
0100
0010
0100
1000
,  // measure 72
0100
0010
0100
0010
0001
0100
0001
0100
,  // measure 73
0010
0001
0100
0001
0100
0010
0001
0100
,  // measure 74
0001
0100
0010
0001
1000
0001
0100
0010
,  // measure 75
0100
0200
0000
0000
,  // measure 76
0000
0000
0300
0010
0000
0001
0000
0100
,  // measure 77
0000
0020
0000
0000
0000
0000
0000
0000
,  // measure 78
0000
0030
0000
0010
0000
0001
0000
0100
,  // measure 79
0000
0020
0000
0000
0000
0000
0000
0000
,  // measure 80
0000
0030
0000
0001
0000
0100
0000
0010
,  // measure 81
0000
0002
0000
0000
0000
0000
0000
0000
,  // measure 82
0000
0000
0000
0003
0000
0001
0100
1000
,  // measure 83
0100
0010
0100
0010
0001
0100
0001
0100
,  // measure 84
0010
0001
1000
0001
0100
0010
0001
0100
,  // measure 85
0010
0100
0010
0001
0100
0001
0100
0010
,  // measure 86
0001
0100
0001
0100
0010
0001
0100
0010
,  // measure 87
0001
0100
0001
0100
0010
0100
1000
0100
,  // measure 88
0010
0100
0010
0010
0100
0001
0100
0010
,  // measure 89
0001
0100
0001
0100
0010
0001
0100
0001
,  // measure 90
0100
0010
0001
1000
0001
0100
0010
0001
,  // measure 91
0100
0001
0100
0010
0001
0100
0001
0100
,  // measure 92
1000
0010
0001
0100
0010
0001
0100
0001
,  // measure 93
1000
0100
0010
0100
0001
0100
0001
0010
,  // measure 94
0100
0001
1000
0001
0010
0100
0001
0100
,  // measure 95
0001
0010
0100
0001
1000
0001
0010
0100
,  // measure 96
0001
0010
0100
0001
0100
0001
0010
0100
,  // measure 97
0010
0100
0001
0001
0001
0100
0010
1000
,  // measure 98
0010
0100
0010
0010
0010
0001
0100
0001
,  // measure 99
0100
0010
0001
0100
0001
1000
0100
0100
,  // measure 100
0010
0100
0010
0100
0010
0010
1000
0010
,  // measure 101
0100
0010
0100
0010
0100
0010
0001
0100
,  // measure 102
0001
0100
0010
0100
1000
0100
0010
0100
,  // measure 103
0010
0001
0100
0001
0100
0010
0100
1000
,  // measure 104
0100
0010
0001
0100
0001
0100
0010
0010
,  // measure 105
0010
0001
1000
0001
0100
0010
0001
0100
,  // measure 106
0001
0100
0010
0001
0100
0001
0100
0010
,  // measure 107
0001
1000
0200
0000
0000
0000
0000
0300
;
