#VERSION:0.83;
#TITLE:crash out;
#SUBTITLE:;
#ARTIST:King ISO & E40;
#TITLETRANSLIT:;
#SUBTITLETRANSLIT:;
#ARTISTTRANSLIT:;
#GENRE:;
#ORIGIN:;
#CREDIT:;
#BANNER:;
#BACKGROUND:;
#PREVIEWVID:;
#JACKET:;
#CDIMAGE:;
#DISCIMAGE:;
#LYRICSPATH:;
#CDTITLE:;
#MUSIC:King Iso - Crash Out Official Visualizer.ogg;
#OFFSET:0.000000;
#SAMPLESTART:100.059883;
#SAMPLELENGTH:12.000000;
#SELECTABLE:YES;
#BPMS:0.000=100.500,
84.000=100.000,
124.000=100.500,
140.000=100.000,
144.000=99.500,
224.000=100.000;
#STOPS:0.000=0.300;
#DELAYS:;
#WARPS:;
#TIMESIGNATURES:0.000=4=4;
#TICKCOUNTS:0.000=4;
#COMBOS:0.000=1;
#SPEEDS:0.000=1.000=0.000=0;
#SCROLLS:0.000=1.000;
#FAKES:;
#LABELS:0.000=Song Start;
#BGCHANGES:;
#KEYSOUNDS:;
#ATTACKS:
;

//---------------dance-single - ----------------
#NOTEDATA:;
#CHARTNAME:;
#STEPSTYPE:dance-single;
#DESCRIPTION:;
#CHARTSTYLE:;
#DIFFICULTY:Hard;
#METER:13;
#RADARVALUES:0.612441,0.616323,0.017534,0.000000,0.738624,978.000000,974.000000,4.000000,0.000000,0.000000,0.000000,0.000000,0.000000,0.000000,0.612441,0.616323,0.017534,0.000000,0.738624,978.000000,974.000000,4.000000,0.000000,0.000000,0.000000,0.000000,0.000000,0.000000;
#CREDIT:;
#NOTES:
// measure 0
0000
0000
0000
0000
,  // measure 1
0000
0000
0000
0000
,  // measure 2
0000
0000
0000
0000
,  // measure 3
0000
0000
0000
0000
,  // measure 4
0100
0000
0001
0000
1000
0100
0001
0000
0100
0000
0010
0100
0001
1000
0001
0000
,  // measure 5
0100
0000
1000
0000
0100
0001
1000
0000
0010
0000
0100
0000
0001
0100
0010
0100
,  // measure 6
0001
0000
0100
0000
0010
0100
0001
1000
0001
0100
1000
0000
0001
0100
1000
0000
,  // measure 7
0100
0000
0010
0000
1000
0001
0100
0010
0100
1000
0001
0010
0100
0001
0001
0100
,  // measure 8
1000
0000
0001
0000
1000
0000
0001
0000
0100
0000
0010
0000
1000
0100
0001
0000
,  // measure 9
1000
0000
0001
0000
0100
0000
0010
0000
0001
0000
0100
0010
0100
0001
1000
0000
,  // measure 10
0001
0000
1000
0000
0001
0000
0100
0000
0010
0000
0100
0001
1000
0001
0010
0000
,  // measure 11
0001
0000
1000
0000
0001
0000
0100
0000
0010
0000
1000
0100
0001
0100
0001
0000
,  // measure 12
0000
0000
0000
0000
0001
0000
0100
0000
1000
0001
1000
0001
0100
0000
1000
0001
,  // measure 13
0100
0000
0010
0000
0100
0010
0001
0100
1000
0010
0100
0001
1000
0000
0001
1000
,  // measure 14
0100
0000
0100
0000
0010
0001
0100
0010
0001
1000
0001
0100
1000
0000
0010
0001
,  // measure 15
1000
0000
0100
0000
0001
1000
0001
0100
0100
0000
0010
0000
0001
1000
0001
0100
,  // measure 16
1000
0000
0100
0000
0001
0100
0010
0100
0001
0000
0001
0100
1000
0010
0100
0001
,  // measure 17
1000
0000
0000
0000
0010
0000
0000
0000
0000
0000
0000
0000
0001
0000
0000
0000
1000
0000
0000
0000
0100
0000
0000
0000
0001
0000
0000
0000
0000
0000
0100
0000
0000
0001
0000
0000
1000
0000
0000
0000
0010
0000
0000
0000
0001
0000
0000
0000
,  // measure 18
0100
0000
0000
0000
0000
0000
0001
0000
0000
0000
0000
0000
1000
0000
0000
0000
0001
0000
0000
0000
0100
0000
0000
0000
0010
0000
0000
0000
0000
0000
0001
0000
0000
0100
0000
0000
1000
0000
0000
0000
0001
0000
0000
0000
0010
0000
0000
0000
,  // measure 19
0100
0000
0000
0001
0000
0000
0001
0000
1000
0000
0001
0000
0100
0000
0010
0000
0001
0000
1000
0000
0001
0000
0100
0000
,  // measure 20
1000
0000
0100
0000
0001
0000
0001
0000
0100
0000
0010
0000
1000
0100
0001
1000
,  // measure 21
0001
0000
0001
0000
1000
0000
0001
0000
0100
0000
0010
0000
0001
1000
0001
0100
,  // measure 22
1000
0000
0001
0000
1000
0000
0001
0000
0100
0000
0010
0000
0001
1000
0001
0100
,  // measure 23
1000
0000
0010
0000
0001
0000
0100
0000
1000
0000
0001
0000
0100
0010
1000
0001
,  // measure 24
0100
0000
0000
0000
0000
0000
0010
0000
0000
0000
0000
0000
0100
0000
0000
0001
0000
0000
1000
0000
0000
0100
0000
0000
0001
0000
0000
0001
0000
0000
0100
0000
0000
0010
0000
0000
1000
0000
0000
0000
0100
0000
0000
0000
0001
0000
0000
0000
,  // measure 25
0010
0000
0100
0000
0001
1000
0100
0001
0010
0000
1000
0100
0001
0010
0100
0000
,  // measure 26
0001
0000
0010
0000
0100
0001
1000
0001
0010
0000
0010
0100
0001
0000
0001
0100
,  // measure 27
1000
0000
0010
0000
0001
0100
0001
1000
0100
0010
0001
0100
0001
0100
0001
1000
,  // measure 28
0100
0000
0010
0000
0100
0001
1000
0000
0001
0000
0100
0010
0100
0001
1000
0001
,  // measure 29
0010
0000
0010
0000
1000
0100
0001
0000
0100
0000
0010
0000
0001
1000
0001
0100
,  // measure 30
1000
0000
0010
0000
0001
0100
0001
1000
0100
0001
0100
0010
0001
1000
0001
0100
,  // measure 31
1000
0000
0100
0000
0100
0010
0001
1000
0001
0100
0010
0001
1000
0001
0100
0001
,  // measure 32
1000
0000
0100
0000
1000
0000
0001
0000
0100
0000
0010
0000
0001
1000
0100
0000
,  // measure 33
0010
0000
0001
0000
0100
0000
0100
0000
0010
0000
0001
1000
0001
0100
1000
0000
,  // measure 34
0001
0000
1000
0000
0001
0000
0100
0000
0010
0000
0001
0100
0001
1000
0100
0000
,  // measure 35
0001
0000
1000
0000
0001
0000
0100
0000
0010
0000
0001
1000
0001
0100
1000
0000
,  // measure 36
0000
0000
0000
0000
1000
0100
0001
0100
0001
1000
0001
0100
0010
0000
1000
0100
,  // measure 37
0001
0000
0010
0000
0100
0001
0100
0010
0100
0000
0001
1000
0100
0001
1000
0001
,  // measure 38
0010
0000
0001
0000
1000
0000
0100
0000
0001
0000
1000
0100
0001
0000
0010
0100
,  // measure 39
0001
0000
1000
0000
0100
0001
0100
0001
0010
0000
0001
0100
1000
0010
0100
0000
,  // measure 40
0100
0000
1000
0000
0001
1000
0001
0100
1000
0000
0001
0100
1000
0010
0100
0001
,  // measure 41
0010
0000
0100
0000
0001
0100
1000
0000
0010
0100
0001
1000
0100
0010
0001
0100
,  // measure 42
1000
0000
0100
0000
0100
0010
0001
0000
1000
0000
0100
0001
1000
0010
0100
0001
,  // measure 43
0010
0000
0110
0000
0001
1000
0100
0001
1000
0000
0100
0001
0010
0001
0100
0010
,  // measure 44
0100
0000
0001
0000
1000
0010
0001
0100
1000
0000
0100
0001
1000
0001
0010
0100
,  // measure 45
0001
0000
1000
0000
0100
0001
1000
0001
0010
0000
0001
0100
1000
0010
0100
0001
,  // measure 46
1000
0000
0100
0000
0001
1000
0100
0000
0100
0010
0001
0100
0001
1000
0100
0010
,  // measure 47
0100
0000
0010
0000
1000
0100
0001
0000
1000
0100
0001
1000
0001
0010
0100
0010
,  // measure 48
1000
0000
0000
0100
0000
0000
0010
0000
0100
0000
0001
0000
1000
0000
0100
0000
0010
0000
0001
0000
1000
0000
0100
0000
,  // measure 49
0100
0000
0010
0000
1000
0000
0100
0000
0001
0000
0010
0100
0001
1000
0001
0010
,  // measure 50
0100
0000
0010
0000
0001
0100
0001
1000
0100
0001
0100
0010
0001
1000
0001
0100
,  // measure 51
1000
0000
0100
0000
0001
1000
0100
0001
0100
0001
1000
0000
0001
0100
0001
1000
,  // measure 52
0100
0000
0010
0000
0100
0001
1000
0000
0100
0000
0001
0010
0100
0001
1000
0001
,  // measure 53
0010
0000
0001
0000
0100
0001
1000
0000
0100
0000
0010
0000
1000
0100
0001
1000
,  // measure 54
0001
0000
0100
0000
0010
0100
0001
1000
0100
0001
0010
0100
0001
0100
1000
0000
,  // measure 55
0100
0000
0010
0000
0001
0100
0010
0001
1000
0001
0100
0010
0001
1000
0001
0100
,  // measure 56
1000
0000
0001
0000
1000
0000
0001
0000
0100
0000
0010
0000
0001
0100
1000
0000
,  // measure 57
0001
0000
1000
0000
0001
0000
0100
0000
0010
0000
1000
0100
0001
0100
0001
0000
,  // measure 58
0001
0000
1000
0000
0001
0000
0100
0000
0010
0000
1000
0100
0001
0100
0001
0000
,  // measure 59
1000
0000
0001
0000
0100
0000
0010
0000
1000
0100
0001
1000
0001
0010
0100
0001
,  // measure 60
0010
0000
0001
0000
1000
0000
0001
0000
0100
0000
0010
0000
0100
0001
0000
0000
,  // measure 61
1000
0100
0001
0100
0001
0000
0010
0100
0001
0000
1000
0100
0001
0010
0000
0000
,  // measure 62
0010
0001
0100
0010
0001
1000
0001
0100
1000
0000
0100
0001
1000
0100
0000
0001
,  // measure 63
0100
0001
0100
0010
0001
1000
0001
0100
1000
0000
0100
0001
1000
0001
0000
0001
,  // measure 64
0100
0010
0001
1000
0001
0100
0001
1000
0100
0000
0000
0001
0100
0000
0000
0001
,  // measure 65
0100
0001
0100
0010
0001
1000
0001
0100
1000
0000
0000
0100
0001
0000
0000
0001
,  // measure 66
0100
0001
0100
0010
0001
1000
0001
0100
1000
0000
0000
0100
0001
0100
0000
0010
,  // measure 67
0100
0001
1000
0001
0010
0100
0001
0100
0001
0000
0000
1000
0100
0001
1000
0010
,  // measure 68
0100
0001
0100
0010
0001
1000
0001
0100
1000
0000
0100
0001
0010
0000
0100
0001
,  // measure 69
1001
0100
0010
0100
0001
1000
0001
0100
1000
0010
0100
0001
1000
0000
0100
0001
,  // measure 70
1000
0010
0100
0010
0001
1000
0001
0100
1000
0000
0100
0000
0001
0010
1000
0001
,  // measure 71
0100
0001
0100
0010
0001
1000
0001
0100
1000
0000
0100
0001
0000
0010
0000
0100
,  // measure 72
0001
0010
0100
0010
0010
0100
0001
1000
0100
0000
0000
0000
1001
0000
0000
0001
,  // measure 73
0100
0001
0100
0010
0001
1000
0001
0100
1000
0000
0100
0001
0010
0000
0000
0000
,  // measure 74
0100
0010
0001
0100
0001
0100
0001
1000
0100
0000
0000
0010
0100
0001
0010
0001
,  // measure 75
1000
0001
0100
0010
1000
0001
0100
0000
0010
0100
0001
1000
0001
0000
1001
0000
,  // measure 76
0000
0000
0000
0000
0100
0001
0010
0000
0100
0000
0001
1000
0100
0001
1000
0100
,  // measure 77
0001
0000
0010
0000
0100
0001
1000
0000
0100
0000
0010
0000
0001
0100
0001
1000
,  // measure 78
0100
0000
0010
0000
0001
0100
0001
0100
1000
0010
0001
0100
0001
0100
1000
0000
,  // measure 79
0100
0000
0010
0000
0001
0100
0010
0001
1000
0001
0100
0010
0001
1000
0001
0100
,  // measure 80
1000
0000
0001
0000
1000
0000
0001
0000
0100
0000
0010
0000
0001
0100
1000
0000
,  // measure 81
0001
0000
0100
0000
0010
0000
0100
0000
1000
0000
0100
0001
0100
0001
0010
0000
,  // measure 82
0001
0000
1000
0000
0001
0000
0100
0000
0010
0000
0001
1000
0001
0100
1000
0000
,  // measure 83
1000
0000
0001
0000
0100
0000
0001
0000
0010
0000
0100
0010
0001
0100
1000
0000
,  // measure 84
0100
0010
0001
1000
0001
0100
0010
0001
,  // measure 85
1000
0001
0100
0010
0001
0100
0001
0100
,  // measure 86
0010
0001
1000
0001
0100
0010
0001
1000
,  // measure 87
0001
0100
0010
0001
1000
0001
0100
1000
;
