#VERSION:0.83;
#TITLE:conceited;
#SUBTITLE:(what the fuck);
#ARTIST:BEAUMONT & Remy Ma;
#TITLETRANSLIT:;
#SUBTITLETRANSLIT:;
#ARTISTTRANSLIT:;
#GENRE:;
#ORIGIN:;
#CREDIT:;
#BANNER:;
#BACKGROUND:;
#PREVIEWVID:;
#JACKET:;
#CDIMAGE:;
#DISCIMAGE:;
#LYRICSPATH:;
#CDTITLE:;
#MUSIC:Beaumont x Remy Ma - Conceited (WTF) [Official Lyric Video] [x3CBRzHaHnk].ogg;
#OFFSET:0.000000;
#SAMPLESTART:100.059883;
#SAMPLELENGTH:12.000000;
#SELECTABLE:YES;
#BPMS:0.000=132.000;
#STOPS:0.000=0.200;
#DELAYS:;
#WARPS:;
#TIMESIGNATURES:0.000=4=4;
#TICKCOUNTS:0.000=4;
#COMBOS:0.000=1;
#SPEEDS:0.000=1.000=0.000=0;
#SCROLLS:0.000=1.000;
#FAKES:;
#LABELS:0.000=Song Start;
#BGCHANGES:;
#KEYSOUNDS:;
#ATTACKS:
;

//---------------dance-single - ----------------
#NOTEDATA:;
#CHARTNAME:;
#STEPSTYPE:dance-single;
#DESCRIPTION:;
#CHARTSTYLE:;
#DIFFICULTY:Hard;
#METER:15;
#RADARVALUES:0.823137,0.843871,0.025495,0.000000,0.930582,904.000000,900.000000,4.000000,0.000000,0.000000,0.000000,0.000000,0.000000,0.000000,0.823137,0.843871,0.025495,0.000000,0.930582,904.000000,900.000000,4.000000,0.000000,0.000000,0.000000,0.000000,0.000000,0.000000;
#CREDIT:;
#NOTES:
// measure 0
0000
0000
0000
0000
,  // measure 1
0000
0000
0000
0000
0000
0000
0000
0000
0100
0000
0001
1000
0000
0000
0100
0000
,  // measure 2
0010
0001
1000
0001
,  // measure 3
0100
0000
0000
0000
0010
0000
0000
0000
0100
0001
0000
1000
0000
0001
0100
0001
,  // measure 4
0010
0000
0100
0000
0001
1000
0100
0001
0100
0000
0100
0000
0010
0000
1000
0001
,  // measure 5
0100
0000
0010
0100
0001
1000
0100
0010
0100
0000
0000
0000
0000
0010
0100
0001
,  // measure 6
1000
0100
0010
0000
0000
0001
0000
1000
0100
0010
0100
0000
0001
0000
0100
0000
,  // measure 7
0010
0000
0100
0001
1000
0100
0001
0000
0010
0000
0001
0000
0100
0000
1000
0000
,  // measure 8
0000
0000
0001
0000
0100
0000
0010
0000
1000
0000
0100
0001
0000
1000
0100
0000
,  // measure 9
0001
0000
0010
0100
0001
0000
0010
0000
0100
0000
0001
1000
0000
0000
0100
0000
,  // measure 10
0001
0000
1000
0000
0000
0100
0001
0000
0010
0000
0100
0000
0000
0001
0010
0100
,  // measure 11
0001
0000
1000
0100
0001
0000
0010
0000
0100
0000
0010
0001
0000
0000
1000
0000
,  // measure 12
0001
0100
0001
0100
0010
0001
1000
0001
,  // measure 13
0100
0000
0010
0100
0001
1000
0100
0001
0010
0000
0010
0000
0001
0000
0100
0000
,  // measure 14
1000
0000
0100
0001
1000
0000
0100
0000
0010
0100
0001
1000
0100
0000
0001
0000
,  // measure 15
0010
0001
0100
0010
0100
1000
0001
0100
0001
0100
1000
0000
0100
0000
0010
0000
,  // measure 16
0001
0000
0100
0000
0001
0000
0100
0000
1000
0000
0001
0100
1000
0100
0001
1000
,  // measure 17
0001
0001
0100
0010
0001
1000
0001
0100
,  // measure 18
1000
0000
0100
0000
0010
0001
0100
0000
0100
0000
0010
0100
0001
1000
0001
0000
,  // measure 19
0010
0000
0100
0001
1000
0000
0100
0001
1000
0100
0001
0010
0001
1000
0001
0100
,  // measure 20
1000
0000
0001
0000
0100
0000
0010
0000
0001
0000
0001
0100
1000
0100
0010
0100
,  // measure 21
0001
0000
0100
0000
0010
0000
0010
0000
0100
0001
1000
0010
0100
0001
1000
0001
,  // measure 22
0010
0000
0100
0000
0001
0000
0010
0100
1000
0000
0001
0000
0100
0001
0010
0000
,  // measure 23
0001
0000
0100
0000
0001
1000
0001
0100
1000
0000
0100
0000
0010
0100
0001
0000
,  // measure 24
0010
0000
0100
0000
1000
0000
0001
0010
0100
0001
0010
0001
1000
0001
0100
0010
,  // measure 25
1000
0000
0100
0000
0010
0000
0001
0010
0100
0001
1000
0001
0010
0100
0001
1000
,  // measure 26
0001
0000
1000
0000
0001
0000
0100
0010
0100
0001
1000
0000
0100
0000
0010
1000
,  // measure 27
0001
0000
0010
0000
0100
0001
1000
0100
0001
0000
0010
0000
0100
0010
0001
0100
,  // measure 28
1000
0000
0010
0000
0100
0001
1000
0001
0010
0100
0001
1000
0001
0010
0100
0001
,  // measure 29
0100
0000
0010
0100
0000
0001
1000
0100
0001
0000
0010
0000
0100
0001
1000
0000
,  // measure 30
0100
0001
0010
1000
0010
0000
0100
0000
0001
0000
1000
0000
0100
0010
0100
0001
,  // measure 31
1000
0000
0100
0001
0010
0100
0001
0000
0010
0000
0100
0000
0001
0000
1000
0000
,  // measure 32
0100
0000
0001
0000
0010
0000
0100
0001
1000
0100
0001
1000
0001
0010
0100
0001
,  // measure 33
0100
0000
0010
0100
0001
0000
1000
0100
0001
0100
0001
0000
0100
1000
0001
0100
,  // measure 34
0001
0000
0010
0000
0100
0000
0001
1000
0100
0000
0010
0000
0001
0000
0100
0000
,  // measure 35
0010
0000
1000
0001
0100
0010
0100
0000
0010
0100
0001
1000
0100
0001
1000
0001
,  // measure 36
0010
0100
0001
0000
0010
0000
0100
0001
1000
0001
0010
0000
0100
0001
1000
0001
,  // measure 37
0010
0000
0001
1000
0000
0100
0001
1000
0001
0010
0100
0000
0000
0000
0010
0000
,  // measure 38
0000
0000
0100
0001
0010
0000
0001
0010
0100
0000
0010
0000
1000
0100
0001
0000
,  // measure 39
0100
0001
1000
0000
0100
0001
0010
0000
0001
0000
0100
0000
1000
0000
0010
0000
,  // measure 40
0000
0000
0001
0000
1000
0100
0001
1000
0001
0000
0001
0000
1000
0000
0001
0000
,  // measure 41
0000
0000
0100
0000
0000
0010
0100
0001
0000
0000
1000
0000
0000
0000
0010
0100
,  // measure 42
0001
1000
0100
0000
0001
0000
1000
0100
0001
0010
0100
0010
0001
1000
0001
0100
,  // measure 43
1000
0100
0010
0100
0001
0100
0010
0001
1000
0001
0100
0010
0001
1000
0001
0100
,  // measure 44
1000
0000
0100
0000
0010
0000
0001
0100
0010
0001
0100
0010
0001
1000
0001
0100
,  // measure 45
1000
0000
0100
0000
0001
0000
0100
0100
0001
0010
0100
0000
0001
0010
0100
0000
,  // measure 46
1000
0000
0001
0000
0100
0000
0010
0001
0100
0000
1000
0000
0010
0100
1000
0001
,  // measure 47
0010
0000
0101
0000
0010
1000
0100
0001
0010
0000
0100
0000
0010
0100
0001
0000
,  // measure 48
0100
0000
0010
0000
1000
0000
0100
0001
0100
0001
0010
0100
0001
1000
0010
0100
,  // measure 49
0001
0000
0010
0000
0001
0000
0100
0010
1000
0100
0001
1000
0100
0001
0010
0000
,  // measure 50
0001
0000
0100
0000
0010
0000
0001
0100
1000
0100
0001
1000
0001
0010
1000
0100
,  // measure 51
0001
0000
1000
0000
0000
0100
0001
1000
0001
0000
0110
0000
0001
0000
1001
0000
,  // measure 52
0100
0000
0110
0000
1000
0000
0100
0000
0010
0000
0100
0001
0000
0000
1000
0000
,  // measure 53
0000
0100
0000
0001
0000
1000
0000
0100
0001
1000
0001
0000
0010
0000
0100
0001
,  // measure 54
1000
0000
0100
0000
0000
0001
0010
0100
0000
0010
0001
1000
0100
0000
0001
0000
,  // measure 55
0100
0000
0001
0000
0000
1000
0100
0000
0001
0010
0000
0100
0001
0000
1000
0000
,  // measure 56
0000
0000
0000
0000
0010
0000
0100
0001
0000
0000
0000
0000
0010
0000
0100
0001
,  // measure 57
0000
0000
0000
0000
0000
0000
0000
0100
0000
0001
0000
1000
0100
0000
0001
0010
,  // measure 58
0000
0000
0000
0000
0001
0000
0100
1000
0000
0000
0000
0000
0001
0000
0100
1000
,  // measure 59
0010
0000
0001
0100
0010
0000
0100
1000
0100
0000
0001
0010
0100
0000
0001
1000
,  // measure 60
0001
0100
0010
0100
0010
0001
1000
0001
0100
0010
0001
1000
0001
0000
0001
0000
,  // measure 61
0000
0000
0100
0000
0010
0000
0000
0000
1000
0000
0001
0010
0100
0000
1000
0000
,  // measure 62
0001
0010
0100
0010
0010
0001
0100
0010
0100
0001
0100
0010
0001
1000
0001
0100
,  // measure 63
1000
0000
0100
0001
0010
0000
0010
0100
0001
0000
0100
0000
0010
0000
1000
0100
,  // measure 64
0001
0100
0010
0100
0001
0100
0010
0001
1000
0001
0100
0010
0001
1000
0001
0100
,  // measure 65
1000
0000
0100
0001
0010
0000
1000
0100
0001
0000
0010
0100
0001
0000
1000
0100
,  // measure 66
0001
0010
0100
0001
1000
0001
0010
0100
0001
1000
0001
0010
0100
0001
1000
0001
,  // measure 67
0010
0000
0100
0001
0010
0000
0001
0100
1000
0000
0010
0001
0100
0000
0010
0100
,  // measure 68
1000
0000
0100
0000
0001
0000
1000
0100
0001
0100
0001
1000
0001
0010
0100
0001
,  // measure 69
1000
0000
0001
0000
0100
0000
0010
0001
0100
0001
0100
0010
0001
1000
0001
0100
,  // measure 70
1000
0000
0100
0000
0010
0000
0100
0001
0100
0010
0001
1000
0001
0100
0001
1000
,  // measure 71
0100
0000
0001
0000
0010
0100
0001
0100
1000
0000
0100
0000
0010
0001
0100
0000
,  // measure 72
1000
0000
0100
0000
0001
0000
0010
0100
0001
0010
0100
0001
1000
0001
0100
0001
,  // measure 73
0100
0000
0001
0000
0100
0000
0010
0001
0100
0001
0100
0010
0001
1000
0001
0100
,  // measure 74
1000
0000
0001
0000
0100
0000
0010
0001
0100
0001
0100
0010
0001
1000
0001
0100
,  // measure 75
1000
0000
0010
0000
0100
0100
0010
0001
0100
0010
0000
0100
0001
0000
1000
0100
,  // measure 76
0001
0100
0010
0001
1000
0001
0100
0010
,  // measure 77
0001
0100
0001
0100
0010
0001
1000
0001
,  // measure 78
0100
0010
0001
1000
0001
0100
0010
0001
,  // measure 79
1000
0000
0001
0000
0100
0000
0010
0000
1000
0000
0100
0001
0000
0000
0100
0000
,  // measure 80
0001
0100
0001
1000
0100
0001
1000
0010
,  // measure 81
0100
0001
1000
0001
0010
0100
0001
1000
,  // measure 82
0001
0010
0001
1000
0001
0100
0010
0001
,  // measure 83
1000
0000
0001
0000
0100
0000
0010
0000
1000
0100
0001
0010
0100
0000
0010
0001
,  // measure 84
1000
1000
0000
1000
0000
1000
0000
1000
0000
1000
0000
1000
,  // measure 85
0000
1000
0000
1000
0000
1000
0000
0000
0000
0000
0000
0000
;
