#VERSION:0.83;
#TITLE:come find me;
#SUBTITLE:(danny l harle remix);
#ARTIST:MK, Clemintine Douglas, & Danny L Harle;
#TITLETRANSLIT:;
#SUBTITLETRANSLIT:;
#ARTISTTRANSLIT:;
#GENRE:;
#ORIGIN:;
#CREDIT:;
#BANNER:;
#BACKGROUND:;
#PREVIEWVID:;
#JACKET:;
#CDIMAGE:;
#DISCIMAGE:;
#LYRICSPATH:;
#CDTITLE:;
#MUSIC:Come Find Me (with Clementine Douglas) (Danny L Harle Remix - Official Audio).ogg;
#OFFSET:0.000000;
#SAMPLESTART:100.059883;
#SAMPLELENGTH:12.000000;
#SELECTABLE:YES;
#BPMS:0.000=134.500,
324.000=134.000,
356.000=136.000,
400.000=134.500;
#STOPS:0.000=0.800;
#DELAYS:;
#WARPS:;
#TIMESIGNATURES:0.000=4=4;
#TICKCOUNTS:0.000=4;
#COMBOS:0.000=1;
#SPEEDS:0.000=1.000=0.000=0;
#SCROLLS:0.000=1.000;
#FAKES:;
#LABELS:0.000=Song Start;
#BGCHANGES:;
#KEYSOUNDS:;
#ATTACKS:
;

//---------------dance-single - ----------------
#NOTEDATA:;
#CHARTNAME:;
#STEPSTYPE:dance-single;
#DESCRIPTION:;
#CHARTSTYLE:;
#DIFFICULTY:Hard;
#METER:13;
#RADARVALUES:0.556623,0.630387,0.109917,0.056853,0.276687,1028.000000,999.000000,29.000000,15.000000,0.000000,0.000000,0.000000,0.000000,0.000000,0.556623,0.630387,0.109917,0.056853,0.276687,1028.000000,999.000000,29.000000,15.000000,0.000000,0.000000,0.000000,0.000000,0.000000;
#CREDIT:;
#NOTES:
// measure 0
0000
0000
0000
0000
,  // measure 1
0000
0000
0000
0000
,  // measure 2
1000
0000
0100
0001
0000
0000
0000
0000
0000
0000
0000
0000
0000
0000
0000
0000
,  // measure 3
0001
0000
0100
1000
0000
0000
0000
0000
0000
0000
0000
0000
0000
0000
0000
0000
,  // measure 4
0010
0000
0001
0100
0000
0000
0000
0000
0000
0000
0000
0000
0000
0000
0000
0000
,  // measure 5
0001
0000
0100
1000
0000
0000
0000
0000
0000
1000
0000
0000
0000
0000
0000
0000
,  // measure 6
0100
0000
0001
1000
0000
0000
0100
0000
0000
0000
0000
0000
0000
0000
0000
0000
,  // measure 7
0000
0000
0110
0000
0000
0000
0100
0000
0100
0010
1000
0100
0001
0100
0001
0000
,  // measure 8
0000
0000
0000
0000
,  // measure 9
0100
0000
0000
0001
0000
0000
0010
0000
0100
0000
0001
0000
1000
0000
0100
0000
,  // measure 10
0010
0000
0100
0000
0001
0000
0000
1000
0000
0000
0100
0000
0000
0010
0000
0000
,  // measure 11
0001
0000
0000
0100
0000
0000
0010
0000
0100
0000
0001
0000
1000
0000
0000
0000
,  // measure 12
0200
0000
0000
0300
,  // measure 13
0001
0000
0000
0100
0000
0000
0010
0000
0100
0000
0001
0000
0100
0000
1000
0000
,  // measure 14
0100
0000
0100
0000
0100
0000
0000
0010
0000
0000
0100
0000
0001
0010
0000
0000
,  // measure 15
0100
0000
0000
0001
0000
0000
1000
0000
0000
0100
0000
0000
0001
0000
2002
0000
,  // measure 16
0000
0000
3003
0000
0000
0000
0010
0100
0000
0000
0010
0000
0000
0001
0000
0000
,  // measure 17
0010
0000
0000
0001
0000
0000
0100
0000
0010
0000
0001
0000
1000
0000
0001
0000
,  // measure 18
0100
0000
0100
0000
0100
0000
0000
0010
0000
0000
0001
0000
0000
0100
0000
0000
,  // measure 19
0010
0000
0000
0100
0000
0000
0001
0000
1000
0000
0100
0000
0001
0000
0000
0000
,  // measure 20
0000
0000
0000
0000
0100
0000
0000
0000
0100
0000
0000
0001
0000
0000
0000
0000
,  // measure 21
0100
0000
0000
0001
0000
0000
1000
0000
0001
0000
1000
0000
0001
0000
0100
0000
,  // measure 22
1000
0000
0001
0000
0100
0000
0000
0010
0000
0000
0100
0000
0000
0001
0010
0000
,  // measure 23
0100
0010
0001
1000
0001
0100
1000
1001
,  // measure 24
0001
0100
0010
0100
0001
0100
1000
0010
,  // measure 25
0001
0010
0100
0001
0100
1000
0100
0010
,  // measure 26
0100
0001
0100
0010
0001
0100
0010
0001
,  // measure 27
1000
0001
0100
0010
2002
0000
0000
3003
,  // measure 28
0010
0100
0001
0010
0001
0010
0100
0001
,  // measure 29
0010
0100
0010
0001
1000
0001
0100
0010
,  // measure 30
0001
1000
0001
0100
0010
0001
0100
0001
,  // measure 31
0100
0010
0001
1000
2002
0000
3003
1001
,  // measure 32
0000
0000
0000
0100
0001
0000
0001
1000
,  // measure 33
0001
0000
0100
0000
0000
0000
0010
0000
0100
0000
0010
0000
1000
0100
0000
0000
,  // measure 34
0010
0000
0000
1000
0001
0000
0001
0100
,  // measure 35
1000
0000
0100
0000
0000
0000
0010
0000
0001
0000
0100
0000
0001
0010
0000
0000
,  // measure 36
1001
0000
0000
0000
0000
0000
1000
0000
0100
0000
0000
0000
0010
0100
0000
0000
,  // measure 37
0100
0000
1000
0000
0000
0000
0100
0000
0001
0000
0010
0000
0010
0100
0000
0000
,  // measure 38
0100
0000
0000
0000
0000
0000
0000
0010
0000
0100
0000
0001
1000
0000
0010
0000
,  // measure 39
0000
0001
1000
0001
0200
0000
0300
0110
,  // measure 40
1000
0000
0100
0000
0001
0000
0100
0000
0001
0000
0000
0200
0000
0000
0000
0000
,  // measure 41
0000
0000
0000
0000
,  // measure 42
0000
0000
0000
0300
0000
0000
0000
0100
0000
0010
0000
0001
0100
0000
2000
0000
,  // measure 43
0000
0000
0000
0000
0000
0000
3000
1001
,  // measure 44
0100
0000
0010
0000
0001
0000
1000
0000
0100
0000
0000
0002
0000
0000
0000
0000
,  // measure 45
0000
0000
0000
0000
0003
0000
0010
0000
0100
0000
0001
0000
0100
1000
0000
0000
,  // measure 46
0001
0000
0100
0000
0000
0000
0010
0000
0100
0000
0000
0001
0000
0000
0100
0000
,  // measure 47
0010
0000
0001
0000
1000
0000
0001
0000
0100
0000
0010
0000
1000
0000
0000
0001
,  // measure 48
0010
0100
0010
0100
0001
1000
0100
0010
,  // measure 49
0001
1000
0001
0100
0010
0001
0100
0001
,  // measure 50
0100
1000
0100
0010
0100
0100
0010
0010
,  // measure 51
0010
0100
0100
0001
0001
0100
0010
0001
,  // measure 52
1000
0001
0100
0010
0001
0100
0001
0100
,  // measure 53
0010
0001
1000
0001
0100
0010
0001
0100
,  // measure 54
0001
0100
0010
0001
1000
0001
0100
0010
,  // measure 55
0001
0000
1000
0000
0001
0000
0100
0000
0010
0100
0001
1000
0001
0100
1000
0000
,  // measure 56
0001
1000
0001
0100
0010
0001
0100
0001
,  // measure 57
0100
1000
0001
0100
0001
0100
0010
0001
,  // measure 58
0001
0100
0001
0010
0001
0100
0001
0100
,  // measure 59
0010
0001
0001
0100
0001
0100
1000
0100
,  // measure 60
0010
0001
0100
0001
0100
0010
0001
0100
,  // measure 61
0001
0100
1000
0100
0010
0001
0100
0001
,  // measure 62
0100
0010
0001
1000
0001
0100
0010
0001
,  // measure 63
0100
0000
0001
0000
0100
0000
0010
0000
0100
0010
0001
1000
0001
0100
1000
0000
,  // measure 64
0010
0100
0001
0100
0010
0001
1000
0001
,  // measure 65
0100
0000
0010
0000
0001
0000
0100
0000
0001
0000
0100
0000
1000
0001
0100
0000
,  // measure 66
0010
0001
0100
0010
0001
1000
0001
0100
,  // measure 67
0010
0000
0001
0000
0100
0000
0001
0000
0100
0000
0010
0000
0001
0100
1000
0000
,  // measure 68
0001
1000
0001
0100
0010
0001
0100
0001
,  // measure 69
0100
0000
0010
0000
0001
0000
1000
0000
0001
0000
0100
0000
0010
0001
0100
0000
,  // measure 70
1000
0000
0001
0000
0100
0000
0010
0100
1000
0001
0010
0100
0001
0000
0001
0000
,  // measure 71
1000
0000
0001
0000
0100
0000
0010
0000
1000
0100
0001
0100
0001
1000
0001
0000
,  // measure 72
0100
0000
0001
0000
0100
0000
0000
0010
0000
0000
0001
0000
0000
1000
0000
0000
,  // measure 73
0100
0000
0000
0001
0000
0000
1000
0000
0100
0000
0001
0000
0010
0000
0100
0000
,  // measure 74
0010
0000
0000
0001
0000
0000
0000
1000
0000
0000
0100
0000
0000
0001
0000
0000
,  // measure 75
0001
0000
0000
0010
0000
0000
0100
0000
0001
0000
0100
0000
1000
0000
0000
0000
,  // measure 76
1000
0000
0001
0000
0100
0000
0000
0010
0000
0000
0100
0000
0000
0001
0000
0000
,  // measure 77
0010
0000
0000
0001
0000
0000
1000
0000
0001
0000
0100
0000
1000
0000
0001
0000
,  // measure 78
0100
0000
0000
0001
0000
0000
0000
0100
0000
0000
1000
0000
0010
0001
0000
0000
,  // measure 79
0100
0000
0000
0001
0000
0000
1000
0000
0000
0000
0100
0000
0001
0000
1001
0000
,  // measure 80
0100
0000
0001
0000
1000
0000
0000
0001
0000
0000
0010
0000
0000
0100
0000
0000
,  // measure 81
0010
0000
0000
0001
0000
0000
1000
0000
0010
0000
0001
0000
0100
0000
1000
0000
,  // measure 82
0100
0000
0010
0000
0100
0000
0000
0001
0000
0000
0010
0000
0000
0100
0000
0001
,  // measure 83
0100
0000
0000
0010
0000
0000
0001
0000
0100
0000
1000
0000
0000
0000
0100
0000
,  // measure 84
0001
0000
0100
0000
1000
0000
0000
0001
0000
0000
0010
0000
0000
0100
0000
0000
,  // measure 85
0100
0000
0000
0010
0000
0000
0001
0000
0100
0000
0001
0000
1000
0000
0100
0000
,  // measure 86
0001
0000
0100
0000
0010
0000
0000
0001
0000
0000
0010
0000
0000
0100
0001
0000
,  // measure 87
0010
0000
0001
0000
1000
0000
0001
0000
0100
0000
0010
0000
1000
0000
0000
0001
,  // measure 88
0010
0000
0000
0000
0000
0000
0100
0000
0001
0000
0000
1000
0000
0000
0000
0000
,  // measure 89
0001
0010
0100
0001
0010
0000
0001
0000
1000
0000
0001
0000
0100
0000
1000
0000
,  // measure 90
0100
0010
0100
0001
1000
0001
0010
0000
0001
0000
0000
0010
0000
0000
0000
0000
,  // measure 91
0001
1000
0001
0100
1000
0000
0001
0000
0200
0000
0000
0000
0300
0000
0000
0000
,  // measure 92
0100
0010
0100
0010
0001
1000
0100
0000
0010
0000
0000
0100
0000
0000
0000
0000
,  // measure 93
0001
0010
0100
0001
0010
0100
0001
0000
1000
0000
0001
0000
0100
0000
1000
0000
,  // measure 94
0100
0010
0100
0001
1000
0010
0100
0000
0010
0000
0000
0100
0000
0000
0000
0000
,  // measure 95
0000
1000
0100
0001
0020
0000
0030
0000
,  // measure 96
0220
0000
0000
0000
0330
0000
0001
0000
1000
0000
0000
0001
0000
0000
0000
0000
,  // measure 97
0100
0010
0001
0100
0001
1000
0100
0000
0000
0000
0000
0000
0000
0000
0000
0000
,  // measure 98
0100
0010
0001
1000
0001
0100
1000
0000
0010
0000
0000
0100
0000
0000
0000
0000
,  // measure 99
0010
0000
0000
0000
0100
0001
0000
0000
0000
0001
0100
0010
1000
0100
0000
0000
,  // measure 100
0001
0010
0100
0001
1000
0001
0010
0000
0100
0000
0000
0010
0000
0000
0000
0000
,  // measure 101
0100
0010
0001
1000
0001
0100
1000
0000
0000
0000
0000
0000
0000
0000
0000
0000
,  // measure 102
0001
0100
0001
0100
0001
0100
1000
0000
0000
0000
0000
0000
0000
0000
0000
0000
,  // measure 103
0000
0000
1000
0000
0001
0000
0100
0000
1000
0100
0001
1000
0001
0010
0100
0000
,  // measure 104
0100
0010
0001
1000
0001
0100
0010
0101
,  // measure 105
0100
0010
0001
1000
0001
0100
0010
1001
,  // measure 106
0010
0001
1000
0001
0100
0010
0010
1001
,  // measure 107
0100
0001
1000
0001
0010
0100
0001
1001
,  // measure 108
0010
0001
1000
0001
0100
0010
1000
1001
,  // measure 109
0100
0010
0001
1000
0001
0100
0010
1001
,  // measure 110
0010
0001
1000
0001
0100
0010
0001
1001
,  // measure 111
0100
0010
0001
1000
0001
0100
0010
0101
,  // measure 112
0001
0100
0000
0010
0000
0001
0000
0100
,  // measure 113
0010
0000
0001
0000
1000
0000
0001
0000
0100
0000
0010
0000
0100
1000
0000
0000
,  // measure 114
0010
0001
0100
0001
0100
0001
1000
0100
,  // measure 115
0010
0000
0001
0000
0100
0000
0010
0000
0100
0010
0001
0100
1000
0001
0010
0000
,  // measure 116
0100
0010
0001
0100
0001
0100
1000
1001
,  // measure 117
0010
0100
0001
1000
0001
0010
0100
1001
,  // measure 118
0100
0010
0001
0100
0001
0100
0010
1001
,  // measure 119
0100
0010
0001
1000
0001
0100
0010
1001
,  // measure 120
0001
0100
0010
0001
0100
0001
0100
0010
,  // measure 121
0001
0000
1000
0000
0001
0000
0100
0000
0010
0000
0001
0000
1000
0100
0010
0000
,  // measure 122
0010
0001
0100
0001
0100
0001
0100
1000
,  // measure 123
0010
0000
0001
0000
1000
0000
0001
0000
0100
0000
0010
0000
1000
0100
0001
0000
,  // measure 124
0100
0010
0001
1000
0001
0100
0010
0100
,  // measure 125
0001
0100
0010
0001
0010
0100
1000
0010
,  // measure 126
0001
0100
0001
0100
0001
0100
0010
0001
,  // measure 127
1000
0000
0001
0000
0100
0000
0010
0000
0100
0010
0001
1000
0001
0100
1000
0100
,  // measure 128
0010
0000
0001
0000
1000
0000
0001
0000
0100
0000
0010
0001
0010
0000
0100
0000
,  // measure 129
0010
0001
1000
0001
0100
0010
0100
0001
,  // measure 130
1000
0000
0100
0000
0001
0000
0100
0000
0010
0000
0001
1000
0100
0000
0001
0000
,  // measure 131
0010
0001
0100
0001
0100
0001
0100
0010
,  // measure 132
0001
0000
1000
0000
0001
0000
0100
0000
0010
0000
1000
0100
0001
0000
0010
0000
,  // measure 133
0001
0100
0001
0100
0001
0100
0010
1001
,  // measure 134
1000
0000
0001
0000
0100
0000
0010
0000
1000
0000
0100
0001
0010
0000
0001
0000
,  // measure 135
0100
0010
0001
1000
0001
0100
0010
1001
,  // measure 136
0010
0000
0100
0000
0001
0000
1000
0000
0100
0000
0000
0001
0000
0000
0010
0000
,  // measure 137
0000
0100
0000
0010
0000
0001
0000
0100
,  // measure 138
0100
0000
0001
0000
1000
0000
0100
0000
1000
0000
0100
0001
0000
0000
0000
0000
,  // measure 139
0000
0100
0001
0010
0100
0001
1000
0000
,  // measure 140
0000
0010
0000
0001
0000
0100
0000
1000
,  // measure 141
0000
0001
0000
0100
0000
0001
0000
0100
,  // measure 142
0000
1000
0000
0001
0000
0100
0000
0010
,  // measure 143
0000
0001
0000
0100
0000
0010
0000
1001
,  // measure 144
0000
0110
0000
0101
0000
1001
0000
0000
;
