#VERSION:0.83;
#TITLE:coconut water;
#SUBTITLE:;
#ARTIST:Trim;
#TITLETRANSLIT:;
#SUBTITLETRANSLIT:;
#ARTISTTRANSLIT:;
#GENRE:;
#ORIGIN:;
#CREDIT:;
#BANNER:;
#BACKGROUND:;
#PREVIEWVID:;
#JACKET:;
#CDIMAGE:;
#DISCIMAGE:;
#LYRICSPATH:;
#CDTITLE:;
#MUSIC:Trim - Coconut Water.ogg;
#OFFSET:0.000000;
#SAMPLESTART:100.059883;
#SAMPLELENGTH:12.000000;
#SELECTABLE:YES;
#BPMS:0.000=90.000;
#STOPS:0.000=0.600;
#DELAYS:;
#WARPS:;
#TIMESIGNATURES:0.000=4=4;
#TICKCOUNTS:0.000=4;
#COMBOS:0.000=1;
#SPEEDS:0.000=1.000=0.000=0;
#SCROLLS:0.000=1.000;
#FAKES:;
#LABELS:0.000=Song Start;
#BGCHANGES:0.000=Trim - Coconut Water.mp4=1.000=0=0=1=====,
99999=-nosongbg-=1.000=0=0=0 // don't automatically add -songbackground-
;
#KEYSOUNDS:;
#ATTACKS:
;

//---------------dance-single - ----------------
#NOTEDATA:;
#CHARTNAME:;
#STEPSTYPE:dance-single;
#DESCRIPTION:;
#CHARTSTYLE:;
#DIFFICULTY:Hard;
#METER:13;
#RADARVALUES:0.562524,0.515094,0.000000,0.000000,0.907084,471.000000,471.000000,0.000000,0.000000,0.000000,0.000000,0.000000,0.000000,0.000000,0.562524,0.515094,0.000000,0.000000,0.907084,471.000000,471.000000,0.000000,0.000000,0.000000,0.000000,0.000000,0.000000,0.000000;
#CREDIT:;
#NOTES:
// measure 0
0000
0000
0000
0000
,  // measure 1
0000
0000
0000
0000
,  // measure 2
0010
0000
0000
0001
0000
0000
0100
0000
0010
0100
0001
0100
1000
0000
0000
0000
,  // measure 3
0010
0000
0000
0010
0000
0000
0001
0000
0000
0100
0000
0000
0010
0000
0001
0000
,  // measure 4
0100
0010
0100
0001
1000
0000
0100
0001
0010
0100
0001
1000
0100
0001
0100
0010
,  // measure 5
0100
0001
0100
1000
0000
0000
0100
0000
0010
0100
0001
1000
0001
0010
0100
0001
,  // measure 6
1000
0100
0001
0010
0000
0000
0100
0000
0010
0100
0001
0100
1000
0100
0001
1000
,  // measure 7
0100
0010
0001
0100
0000
0100
0010
0100
0001
0100
1000
0010
0100
0000
0000
0000
,  // measure 8
0001
0100
0001
1000
0100
0000
0100
0010
0001
0100
0001
0100
0000
0100
0010
0001
,  // measure 9
0100
0001
0100
1000
0000
0000
0010
0000
0001
0100
0001
1000
0000
0100
0001
0100
,  // measure 10
0001
0010
0100
0010
0000
0000
0100
0000
0100
0001
0100
1000
0000
0001
0010
0100
,  // measure 11
0001
0100
1000
0100
0000
0100
0010
0001
0100
0001
0100
1000
0100
0010
0001
0100
,  // measure 12
0001
0100
1000
0100
0001
0000
0100
0000
0001
0100
0001
0100
1000
0000
0010
0000
,  // measure 13
0001
0100
0001
0100
0010
0100
0010
0001
0100
0001
0100
1000
0100
0000
0010
0000
,  // measure 14
0010
0001
0100
0001
0100
0010
0001
0100
0001
0100
0001
1000
0100
0000
0000
0000
,  // measure 15
0010
0001
0100
0001
0100
0010
0001
1000
0001
0100
0010
0001
0100
0001
0100
1000
,  // measure 16
0100
0100
0010
0001
0000
0000
0100
0000
0010
0001
0100
1000
0100
0000
0010
0100
,  // measure 17
0001
1000
0001
0010
0000
0000
0001
0000
0010
0001
0100
1000
0000
0010
0100
0001
,  // measure 18
1000
0010
0100
0001
0000
0000
1000
0000
0100
0001
0010
0100
0001
0000
0000
0000
,  // measure 19
0010
0001
1000
0001
0100
0000
0010
0001
0100
0001
0100
1000
0100
0000
0000
0000
,  // measure 20
0000
0000
0000
0000
0000
0000
0000
0000
0010
0100
0001
0100
1000
0000
0000
0000
,  // measure 21
0000
0000
0010
0001
1000
0001
0100
0010
0001
0100
0001
0100
1000
0000
0000
0000
,  // measure 22
0000
0000
0100
0010
0001
0100
0001
0100
0010
0100
0001
0100
1000
0000
0000
0000
,  // measure 23
0000
0100
0010
0001
0100
0001
0100
0010
0001
0100
0001
0100
1000
0010
0100
0001
,  // measure 24
0010
0100
0001
1000
0001
0000
0010
0100
0010
0000
0001
0100
0001
0010
0100
0000
,  // measure 25
0001
0010
1000
0001
0100
0000
0001
0100
0010
0000
0001
0100
0001
1000
0100
0000
,  // measure 26
0001
0100
0001
1000
0100
0100
0010
0001
0100
0010
0001
0100
0001
1000
0100
0000
,  // measure 27
0000
0000
0001
0100
0010
0001
0100
0001
0100
0010
0001
0100
0001
1000
0100
0000
,  // measure 28
0010
0001
1000
0001
0100
0000
0100
0010
0001
0100
0001
0100
1000
0100
0010
0001
,  // measure 29
0100
0001
0100
1000
0000
0000
0010
0000
0010
0100
0001
0100
0000
0001
1000
0010
,  // measure 30
0100
0010
0100
0001
0000
0000
1000
0000
0010
0001
0100
1000
0000
0010
0100
0001
,  // measure 31
1000
0001
0010
0100
0000
0001
0100
0010
0001
1000
0001
0100
1000
0000
0000
0000
,  // measure 32
0010
0001
1000
0001
0100
0000
0010
0100
0001
1000
0001
0010
0100
0100
0010
0001
,  // measure 33
0100
0001
0100
1000
0000
0000
0100
0000
0010
0100
0001
1000
0001
0010
0100
0001
,  // measure 34
0010
0100
1000
0100
0000
0000
0001
0000
0010
0001
0100
1000
0100
0010
0100
0001
,  // measure 35
0100
0001
0100
1000
0000
0100
0010
0001
0001
1000
0001
0100
1000
0000
0010
0100
,  // measure 36
0001
1000
0001
0010
0100
0010
0001
0100
0001
0010
0100
0001
1000
0100
0001
0000
,  // measure 37
0000
0000
0000
0000
0000
0000
0000
0000
0100
0001
1000
0001
0010
0000
0000
0000
,  // measure 38
0100
0001
1000
0001
0010
0100
0001
0100
0001
0010
0100
0001
1000
0010
0100
0000
,  // measure 39
0100
0010
0001
1000
0100
0001
0100
0010
0001
0100
0001
1000
0100
0000
0000
0000
;
