#TITLE:cigarette;
#SUBTITLE:;
#ARTIST:Joji;
#TITLETRANSLIT:;
#SUBTITLETRANSLIT:;
#ARTISTTRANSLIT:;
#GENRE:;
#CREDIT:;
#BANNER:;
#BACKGROUND:;
#LYRICSPATH:;
#CDTITLE:;
#MUSIC:Joji - Cigarette.ogg;
#OFFSET:0.000000;
#SAMPLESTART:0.059886;
#SAMPLELENGTH:12.000000;
#SELECTABLE:YES;
#BPMS:0.000000=110.000000
;
#STOPS:0.000000=0.250000
;
#BGCHANGES:;
#KEYSOUNDS:;
#ATTACKS:;

//---------------dance-single - ----------------
#NOTES:
     dance-single:
     :
     Hard:
     11:
     0.365357,0.616974,0.036021,0.045026,0.301677,284.000000,280.000000,4.000000,5.000000,0.000000,0.000000,0.365357,0.616974,0.036021,0.045026,0.301677,284.000000,280.000000,4.000000,5.000000,0.000000,0.000000:
// measure 0
0000
0000
0000
0000
,  // measure 1
0000
0000
0000
0000
,  // measure 2
0100
0001
0010
0000
0100
0000
0001
0000
1000
0000
0100
0000
0001
0010
0100
0000
,  // measure 3
0100
0000
0010
0000
0001
0000
0100
0000
0010
0001
0100
0000
0010
0000
0001
0000
,  // measure 4
0000
0000
0000
0000
0000
0000
0000
0000
1000
0200
0000
0000
0000
0000
0000
0000
,  // measure 5
0000
0000
0000
0000
,  // measure 6
0000
0000
0000
0000
,  // measure 7
0000
0000
0000
0000
0000
0000
0000
0300
,  // measure 8
1000
0100
0001
0000
0010
0000
0100
0001
1000
0000
0010
0000
0100
0001
0010
0000
,  // measure 9
0001
0100
0010
0000
0001
0010
0100
0001
0010
0000
0010
0001
0100
0000
0100
0000
,  // measure 10
0010
0001
0100
0000
0010
0000
1000
0000
0001
0000
0100
0000
0010
0001
0100
0000
,  // measure 11
0001
0000
1000
0000
0001
0000
0100
0000
0010
0001
0100
0000
0010
0000
0100
0000
,  // measure 12
0000
0000
0000
0000
0000
0000
0000
0000
0100
0002
0000
0000
0000
0000
0000
0000
,  // measure 13
0000
0000
0000
0000
,  // measure 14
0000
0000
0000
0000
,  // measure 15
0000
0000
0000
0000
0000
0000
0000
0000
0000
0000
0000
0000
0003
0000
1000
0100
,  // measure 16
0001
0010
0100
0000
0001
0100
0010
0000
0001
0100
0010
0001
1000
0001
0100
0000
,  // measure 17
0010
0000
1000
0001
0100
0000
0001
0100
0010
0000
1000
0001
0100
0000
0100
0001
,  // measure 18
0010
0000
0010
0000
0001
0100
0010
0100
0001
0000
1000
0100
0001
0010
0100
0000
,  // measure 19
0001
0000
0100
0000
1000
0010
0100
0001
0100
0000
0010
0100
0001
0000
0100
0000
,  // measure 20
0011
0000
0001
0000
0101
0000
0001
0000
0101
0000
0010
0000
0100
0001
1000
0001
,  // measure 21
0010
0000
0100
0000
0101
0000
0010
0000
0001
1000
0100
0001
0100
0001
0010
0100
,  // measure 22
0001
0000
1000
0100
0001
0000
0100
0000
0010
0001
1000
0001
0100
0000
0010
0000
,  // measure 23
0001
0000
0100
0010
0100
0001
1000
0000
0010
0000
0001
0100
0001
0100
1000
0000
,  // measure 24
0010
0001
0100
0000
0010
0000
0100
0001
0010
0000
0001
0000
0100
0001
0010
0000
,  // measure 25
0100
0001
0010
0000
0100
0001
0100
0010
0100
0000
1000
0100
0001
0000
0010
0000
,  // measure 26
0100
0010
0100
0000
0001
0000
0010
0000
0001
0000
0100
0000
0010
0001
0100
0000
,  // measure 27
0100
0000
0010
0000
0001
0000
0100
0000
0010
0001
0100
0000
0100
0000
0001
0000
,  // measure 28
0000
0000
0000
0000
0000
0000
0000
0000
0100
2000
0000
0000
0000
0000
0000
0000
,  // measure 29
0000
0000
0000
0000
,  // measure 30
0000
0000
0000
0000
,  // measure 31
0000
0000
0000
3000
,  // measure 32
0100
0001
0010
0000
0001
0000
0010
0100
0001
0000
0100
0000
0010
0001
0100
0000
,  // measure 33
0010
0100
0001
0000
1000
0100
0001
0010
0100
0000
0001
0010
0100
0000
0010
0000
,  // measure 34
0100
0001
1000
0000
0100
0000
0001
0000
0100
0000
0010
0000
0001
1000
0100
0000
,  // measure 35
0010
0000
1000
0000
0001
0000
0100
0000
0010
0001
0100
0000
0100
0000
0010
0000
,  // measure 36
0000
0000
0000
0000
0000
0000
0000
0000
0100
0002
0000
0000
0000
0000
0000
0000
,  // measure 37
0000
0000
0000
0000
,  // measure 38
0000
0000
0000
0000
,  // measure 39
0000
0000
0000
0000
0000
0000
0000
0003
,  // measure 40
0010
0001
0100
0010
,  // measure 41
0001
0100
0001
0100
,  // measure 42
1000
0001
0100
0010
,  // measure 43
0001
1000
0001
0100
,  // measure 44
0010
0001
0100
0001
,  // measure 45
0100
0010
0001
0100
,  // measure 46
0001
0100
0010
0001
,  // measure 47
1000
0001
0100
0020
,  // measure 48
0000
0000
0000
0000
,  // measure 49
0000
0000
0000
0000
,  // measure 50
0000
0000
0000
0030
;
