#VERSION:0.83;
#TITLE:church;
#SUBTITLE:;
#ARTIST:JADE;
#TITLETRANSLIT:;
#SUBTITLETRANSLIT:;
#ARTISTTRANSLIT:;
#GENRE:;
#ORIGIN:;
#CREDIT:;
#BANNER:;
#BACKGROUND:;
#PREVIEWVID:;
#JACKET:;
#CDIMAGE:;
#DISCIMAGE:;
#LYRICSPATH:;
#CDTITLE:;
#MUSIC:Church.ogg;
#OFFSET:0.000000;
#SAMPLESTART:100.059883;
#SAMPLELENGTH:12.000000;
#SELECTABLE:YES;
#BPMS:0.000=124.000,
12.000=114.000,
24.000=94.000,
29.000=74.000,
30.000=47.000,
32.000=124.000,
376.000=62.000;
#STOPS:0.000=1.700;
#DELAYS:;
#WARPS:;
#TIMESIGNATURES:0.000=4=4;
#TICKCOUNTS:0.000=4;
#COMBOS:0.000=1;
#SPEEDS:0.000=1.000=0.000=0;
#SCROLLS:0.000=1.000;
#FAKES:;
#LABELS:0.000=Song Start;
#BGCHANGES:;
#KEYSOUNDS:;
#ATTACKS:
;

//---------------dance-single - ----------------
#NOTEDATA:;
#CHARTNAME:;
#STEPSTYPE:dance-single;
#DESCRIPTION:;
#CHARTSTYLE:;
#DIFFICULTY:Hard;
#METER:12;
#RADARVALUES:0.463344,0.576953,0.131551,0.031754,0.340218,715.000000,686.000000,29.000000,7.000000,0.000000,0.000000,0.000000,0.000000,0.000000,0.463344,0.576953,0.131551,0.031754,0.340218,715.000000,686.000000,29.000000,7.000000,0.000000,0.000000,0.000000,0.000000,0.000000;
#CREDIT:;
#NOTES:
// measure 0
0000
0000
0000
0000
,  // measure 1
0000
0000
0000
0000
,  // measure 2
1000
0000
0010
0001
0000
0010
0001
0100
,  // measure 3
1000
0000
0010
0001
0000
0000
0100
0001
,  // measure 4
1000
0000
0010
0000
,  // measure 5
0001
0010
0001
0100
1000
0000
0000
0000
,  // measure 6
0010
0000
1000
0100
0100
0000
0000
0000
,  // measure 7
0001
1000
0001
0100
2000
0000
3000
0000
,  // measure 8
0001
0000
0000
0000
0100
0000
0000
0000
0010
0001
0100
0010
0001
1000
0001
0100
,  // measure 9
1000
0000
0001
0000
0100
0010
0100
0001
,  // measure 10
1000
0000
0100
0001
0000
0000
0100
0000
0001
1000
0000
0000
0100
0001
0000
0010
,  // measure 11
0000
0000
0000
0000
0001
1000
0001
0100
,  // measure 12
1000
0100
0000
0001
0000
0000
0000
0000
0100
0000
0001
0000
1000
0000
0001
0010
,  // measure 13
0000
0000
0000
0000
0000
0000
0000
0000
0001
0000
0100
0000
0001
0000
1000
0100
,  // measure 14
0000
0000
0000
0000
0000
0000
0000
0000
0100
0001
0000
1000
0000
0100
0000
0000
,  // measure 15
0010
0000
0000
0000
0000
0000
0000
0100
0001
0000
0010
0000
0100
0000
0001
0000
,  // measure 16
1000
0000
0001
0000
0100
0000
0001
1000
0000
0000
0010
0000
0001
0000
0100
0010
,  // measure 17
0000
0000
0000
0000
0010
0000
0100
0010
0001
0000
0010
0000
0100
0000
0001
1000
,  // measure 18
0000
0000
0001
0000
0010
0000
0100
0001
0000
0000
1000
0000
0010
0000
0100
0001
,  // measure 19
0000
0000
1000
0000
0100
0000
0001
0010
0000
0000
0000
0100
0001
0010
0000
1000
,  // measure 20
0000
0000
0000
0100
0001
0010
0000
0100
0000
0000
0000
0000
0001
0010
0000
0100
,  // measure 21
0000
0000
0000
0000
0100
0001
0000
1000
0000
0000
0000
0100
0000
0000
0000
0001
,  // measure 22
1000
0000
0000
0000
0100
0000
0000
0001
1000
0000
0000
0010
0100
0000
0000
0001
,  // measure 23
0010
0000
0000
0001
0010
0000
0000
0100
0001
0000
0000
0000
0000
0000
0010
0000
,  // measure 24
0100
0001
0000
0000
0001
0010
0000
0000
0010
0100
0000
0000
0100
0000
0001
0000
,  // measure 25
0000
1000
0000
0000
0000
0100
0001
1000
,  // measure 26
1001
0000
0001
0100
1001
0010
0100
0001
,  // measure 27
1001
0000
0100
0010
0000
0000
0001
0100
,  // measure 28
1000
0000
0010
0001
0000
0001
0100
0010
,  // measure 29
0001
0000
1000
0100
0000
0000
0001
0010
,  // measure 30
0100
0010
0001
1000
0001
0100
0010
0001
,  // measure 31
1000
0001
0100
0010
0001
1000
0001
0100
,  // measure 32
0010
0001
1000
0001
0100
0010
0001
1000
,  // measure 33
0001
0100
0001
0100
2002
0000
3003
0000
,  // measure 34
0100
0000
0100
0000
0100
0000
0001
0100
0010
0100
0001
1000
0001
0010
0100
0001
,  // measure 35
0100
0000
0000
0000
0010
0000
0000
0000
0100
0001
0100
0010
0001
1000
0001
0100
,  // measure 36
2000
0000
0000
0000
3000
0000
0000
0000
0100
0001
0100
0010
0001
1000
0001
0100
,  // measure 37
1000
0000
0000
0000
0010
0000
0000
0000
0100
0010
0001
0100
0001
0100
0001
1000
,  // measure 38
0100
0000
0010
0000
0001
1000
0001
0100
,  // measure 39
1000
0000
0010
0000
0001
0000
1000
0000
0001
0000
0100
0000
0010
0000
0000
0001
,  // measure 40
0100
0000
0000
0000
0000
0000
0010
0001
,  // measure 41
1000
0001
0100
0010
0001
1000
0001
0100
,  // measure 42
1000
0000
0000
0000
0000
0000
0000
0000
0100
0000
0010
0000
0001
0000
0100
1000
,  // measure 43
0000
0000
0000
0000
0000
0000
0000
0000
0001
0000
0100
0000
0010
0000
0001
0100
,  // measure 44
0000
0000
0000
0000
1000
0100
0001
1000
,  // measure 45
0001
0000
0010
0000
0100
0010
0000
0001
0000
0000
1000
0000
0100
0000
0001
0000
,  // measure 46
0010
0000
0000
0000
0000
0000
0000
0000
0000
0000
0100
0000
0001
0000
0100
1000
,  // measure 47
0000
0000
0100
0000
0001
0000
1000
0100
0000
0000
0001
0000
0010
0100
0000
0001
,  // measure 48
0000
0000
1000
0000
0100
0001
0000
0010
0000
0000
0000
0000
0010
0100
0000
0001
,  // measure 49
0000
0000
0000
0000
1000
0100
0000
0001
0000
0000
0000
0000
0010
0100
0000
0001
,  // measure 50
0000
0000
0000
0000
1000
0100
0000
0001
0000
0000
0000
1000
0000
0000
0001
0000
,  // measure 51
0100
0001
1000
0010
0100
0010
0001
1000
,  // measure 52
0001
0100
1000
0100
0010
0001
1000
0001
,  // measure 53
0100
0010
0001
1000
0001
0100
0010
0001
,  // measure 54
1000
0001
0100
0010
0001
1000
0001
0100
,  // measure 55
1001
0000
0001
0010
0101
0010
0100
0010
,  // measure 56
1001
0000
0001
0010
0000
0010
0001
0100
,  // measure 57
1000
0000
0001
0010
0000
0010
0001
0100
,  // measure 58
1000
0000
0010
0001
0000
0000
0001
0100
,  // measure 59
1000
0000
0010
0000
,  // measure 60
0001
0100
0001
1000
0100
0000
0000
0000
,  // measure 61
1001
0000
0001
1000
0110
0000
0000
0000
,  // measure 62
0110
0001
0100
0010
0001
0000
0100
0001
,  // measure 63
1001
0000
0010
0100
0101
0001
0100
0010
,  // measure 64
1001
0000
0100
0001
1001
0000
0001
0100
,  // measure 65
1000
0000
0010
0001
0000
0000
1000
0100
,  // measure 66
0000
0000
0001
0100
0000
0000
0001
0100
,  // measure 67
1000
0001
0100
0010
0100
0001
1000
0010
,  // measure 68
0001
1000
0001
0100
0010
0001
1000
0001
,  // measure 69
0100
0010
0001
1000
0001
0100
0010
0001
,  // measure 70
1000
0001
0100
0010
0001
0010
0100
0001
,  // measure 71
0010
0010
0010
0010
,  // measure 72
0010
0000
0000
0000
0010
0000
0000
0000
0010
0001
0100
0010
0001
1000
0001
0100
,  // measure 73
1000
0000
0000
0000
0010
0000
0000
0000
0010
0001
0100
0010
0001
1000
0001
0100
,  // measure 74
2000
0000
0000
0000
3000
0000
0000
0000
0100
0001
0100
0001
1000
0001
0010
0100
,  // measure 75
0001
0000
0000
0000
0010
0000
0000
0000
0100
0001
1000
0100
0001
0100
0001
1000
,  // measure 76
0001
0000
0000
0000
0010
0000
0000
0000
0010
0001
0100
0010
0001
1000
0001
0100
,  // measure 77
1000
0000
0100
0000
0001
0000
1000
0000
0100
0010
0000
0100
0000
0000
0000
0000
,  // measure 78
1000
0100
0000
0001
0000
0000
0000
0000
0100
0001
0000
0010
0000
0000
0000
0000
,  // measure 79
0110
0000
0000
0000
0101
0000
0000
0000
1000
0000
0100
0001
0000
0000
0000
0000
,  // measure 80
0100
0000
0001
0010
0000
0000
0000
0100
0001
0000
1000
0100
0000
0000
0010
0000
,  // measure 81
0100
0001
0010
0001
1000
0100
0000
0010
,  // measure 82
0100
0001
1000
0001
0010
0000
0000
0000
,  // measure 83
0010
0001
0100
0001
1000
0100
0000
0010
,  // measure 84
0100
0000
0000
0001
0000
0000
1000
0100
0001
0000
0000
0000
0000
0000
0000
0000
,  // measure 85
0100
0000
0000
0000
0001
0000
1000
0000
0100
0000
0010
0100
0000
0000
0010
0001
,  // measure 86
0100
0000
0001
1000
0000
0000
0000
0010
0100
0000
0001
1000
0000
0000
0000
0000
,  // measure 87
0100
0000
0001
0000
1000
0100
0001
0000
0010
0000
0100
0001
0000
0000
1000
0000
,  // measure 88
0100
0010
0001
0100
1000
0000
1001
0001
,  // measure 89
0010
0001
0100
0010
1100
0000
0101
0000
,  // measure 90
1100
0110
0101
0110
,  // measure 91
0010
0001
0100
0001
0101
0000
1100
0000
,  // measure 92
0101
0110
1100
0220
,  // measure 93
0000
0000
0000
0000
0330
0001
1000
0100
,  // measure 94
0100
0000
0010
0100
0000
1000
0001
0100
1000
0000
0001
0010
0010
0100
0001
0100
,  // measure 95
1000
0000
0001
0010
0000
0100
0001
0100
1000
0000
0001
0010
0000
0000
0001
0100
,  // measure 96
1000
0000
0000
0000
0010
0000
0000
0000
0100
0001
1000
0010
0100
0000
0000
0000
,  // measure 97
0100
0000
0001
1000
0100
0000
0000
0000
0001
0100
0001
0100
0010
0000
0100
0001
,  // measure 98
1000
0000
0001
0100
0000
0010
0001
0100
1000
0000
0100
0001
0000
0000
1000
0100
,  // measure 99
0001
0000
0010
0001
0000
0000
0001
1000
0100
0000
0010
0001
0000
0000
1000
0100
,  // measure 100
0001
0000
0000
0000
0010
0000
0000
0000
0001
1000
0001
0100
1000
0000
0000
0000
,  // measure 101
0010
0000
0100
0001
1000
0000
0000
0000
0001
1000
0001
0100
1000
0000
0000
0000
;
