#VERSION:0.83;
#TITLE:chest;
#SUBTITLE:;
#ARTIST:JUSTB;
#TITLETRANSLIT:;
#SUBTITLETRANSLIT:;
#ARTISTTRANSLIT:;
#GENRE:;
#ORIGIN:;
#CREDIT:;
#BANNER:;
#BACKGROUND:;
#PREVIEWVID:;
#JACKET:;
#CDIMAGE:;
#DISCIMAGE:;
#LYRICSPATH:;
#CDTITLE:;
#MUSIC:chest.ogg;
#OFFSET:0.000000;
#SAMPLESTART:100.059883;
#SAMPLELENGTH:12.000000;
#SELECTABLE:YES;
#BPMS:0.000=140.000;
#STOPS:0.000=0.200;
#DELAYS:;
#WARPS:;
#TIMESIGNATURES:0.000=4=4;
#TICKCOUNTS:0.000=4;
#COMBOS:0.000=1;
#SPEEDS:0.000=1.000=0.000=0;
#SCROLLS:0.000=1.000;
#FAKES:;
#LABELS:0.000=Song Start;
#BGCHANGES:0.000=JUSTB CHEST (Official Music Video).mp4=1.000=0=0=1=====,
99999=-nosongbg-=1.000=0=0=0 // don't automatically add -songbackground-
;
#KEYSOUNDS:;
#ATTACKS:
;

//---------------dance-single - ----------------
#NOTEDATA:;
#CHARTNAME:;
#STEPSTYPE:dance-single;
#DESCRIPTION:;
#CHARTSTYLE:;
#DIFFICULTY:Hard;
#METER:13;
#RADARVALUES:0.541016,0.696707,0.017836,0.101069,0.335906,637.000000,634.000000,3.000000,17.000000,0.000000,0.000000,0.000000,0.000000,0.000000,0.541016,0.696707,0.017836,0.101069,0.335906,637.000000,634.000000,3.000000,17.000000,0.000000,0.000000,0.000000,0.000000,0.000000;
#CREDIT:;
#NOTES:
// measure 0
0000
0000
0000
0000
,  // measure 1
0000
0000
0000
0000
,  // measure 2
0000
0000
0000
0000
,  // measure 3
0000
0000
0000
0000
,  // measure 4
1000
0000
0010
0100
0001
0010
0100
0000
0100
0010
0100
0001
1000
0001
0100
1000
,  // measure 5
0001
0010
0100
0010
0100
0000
0001
0000
1000
0000
0000
0010
0000
0000
0100
0000
,  // measure 6
0001
1000
0100
0000
0001
0000
0000
0000
1000
0000
0001
0000
0100
0000
0010
0000
,  // measure 7
1000
0000
0000
0001
0000
0000
0100
0000
0001
0010
0001
0100
0010
0100
1000
0000
,  // measure 8
0010
0100
0001
1000
0100
0000
0000
0000
0001
0000
1000
0000
0001
0000
0100
0000
,  // measure 9
1000
0000
0100
0001
0000
0000
0010
0000
0100
0000
0000
0001
0000
0000
1000
0000
,  // measure 10
0100
0010
0001
0100
0001
0000
0000
0000
0100
0000
0001
0000
1000
0000
0100
0000
,  // measure 11
0001
0000
0000
0100
0001
1000
0001
0010
,  // measure 12
0100
0001
0100
0100
,  // measure 13
1000
0000
0100
0001
0010
0000
0100
0000
0001
0000
0000
1000
0000
0000
0100
0000
,  // measure 14
0001
0100
1000
0100
0010
0000
0000
0000
0001
0000
1000
0000
0001
0000
0100
0000
,  // measure 15
0010
0000
0000
0100
0000
0000
0001
0000
0100
0000
0000
0010
0000
0000
0001
0000
,  // measure 16
1000
1000
1000
0000
0001
1000
0001
0100
,  // measure 17
1000
0000
0000
0100
0000
0000
0010
0000
0100
0000
0001
1000
0010
0001
0100
0010
,  // measure 18
0100
0010
0100
0000
0100
0001
1000
0001
,  // measure 19
0100
0000
0010
0100
0100
0001
1000
0100
,  // measure 20
0001
1000
0001
0100
0001
1000
0100
0010
,  // measure 21
0001
0000
1000
0000
0001
0000
0100
0000
0001
0000
0100
0000
0010
0000
0001
0100
,  // measure 22
1000
0000
0001
0000
0100
0000
0010
0100
0001
0000
1000
0000
0001
0000
0100
0010
,  // measure 23
1000
0000
0010
0000
0001
0000
1000
0000
0001
0000
0100
0000
1000
0100
0001
0000
,  // measure 24
0010
0000
0001
0100
0010
0000
0100
0000
0001
0000
0010
0000
0001
0000
1000
0000
,  // measure 25
0100
0000
0001
0100
1000
0000
0100
0000
0001
0000
0010
0000
0001
0100
0001
0100
,  // measure 26
1000
0000
0010
0100
0001
0000
1000
0000
0100
0000
1000
0000
0001
0000
0100
0000
,  // measure 27
0010
0000
0100
0001
0100
0000
0100
0000
0010
0000
0001
0000
0100
0000
1000
0000
,  // measure 28
0020
0030
0100
0020
,  // measure 29
0000
0000
0030
0010
0200
0000
0000
0000
,  // measure 30
0000
0000
0000
0000
0300
0000
0001
1000
,  // measure 31
0100
0001
0100
1000
0010
0000
0220
0000
,  // measure 32
0000
0000
0000
0330
,  // measure 33
0020
0030
0001
0100
,  // measure 34
0110
0020
0000
0000
0030
0100
0010
0001
,  // measure 35
0001
1000
0100
0010
0000
0100
0001
0100
,  // measure 36
1000
0100
1000
0000
0001
0000
0100
0000
,  // measure 37
1000
0000
0100
0001
0010
0000
0100
0000
0001
0000
0000
1000
0000
0000
0100
0000
,  // measure 38
0001
0000
0100
0000
0100
0000
1000
0010
,  // measure 39
0100
0000
0000
0100
0000
0000
0010
0000
0001
0000
0000
0100
0000
0000
1000
0000
,  // measure 40
0100
0001
0100
0000
1000
0001
0100
0001
,  // measure 41
1000
0000
0010
0100
0000
0000
0001
0000
1000
0000
0000
0010
0000
0000
0001
0000
,  // measure 42
0001
0100
1000
0000
0001
1000
0001
0100
,  // measure 43
1000
0000
0010
0001
0100
0001
1000
0100
,  // measure 44
1000
0001
0100
0010
,  // measure 45
1000
0000
0001
0100
0010
0000
0100
0000
0001
0000
0000
1000
0000
0000
0100
0000
,  // measure 46
0010
0000
0100
0000
0001
0000
1000
0100
,  // measure 47
0001
0000
0000
0100
0000
0000
0010
0000
0001
0000
0000
0100
0000
0000
0010
0000
,  // measure 48
1000
0100
0001
0000
1000
0100
0001
0100
,  // measure 49
0001
0000
0100
0010
0000
0000
0010
0000
0001
0000
0000
0100
0000
0000
1000
0000
,  // measure 50
0100
0001
1000
0000
0001
1000
0001
0100
,  // measure 51
1000
0000
0000
0000
0001
0000
0100
0000
1000
0000
0001
0000
0100
0010
0100
0001
,  // measure 52
1000
0000
0000
0000
0100
0000
0000
0001
0000
0000
0010
0000
0100
0000
0000
0001
,  // measure 53
0000
0000
0000
0000
1000
0100
0001
0000
0010
0000
0100
0000
0001
0000
0000
0000
,  // measure 54
0000
0000
0000
0000
1000
0000
0000
0000
0000
0000
0100
0001
0010
0000
0000
0100
,  // measure 55
0001
1000
0100
0001
0000
0010
0100
0001
1000
0002
0000
0000
,  // measure 56
0003
0000
0000
0000
0000
0000
0000
0000
0000
0000
0000
0000
0010
0000
0000
0000
0000
0000
0000
0000
0000
0100
0000
0000
0000
0000
0000
0000
0000
0000
0001
0000
0000
0000
0000
0000
0000
0000
0000
0000
1000
0000
0000
0000
0100
0000
0000
0000
,  // measure 57
0001
0000
0000
1000
0000
0000
0100
0000
0001
0000
0100
0000
0010
0000
0001
0000
1000
0000
0001
0000
0100
0000
1000
0000
,  // measure 58
0001
0000
0010
0000
0100
0000
0010
0000
0100
0000
0001
0000
1000
0000
0000
0000
0000
0000
1000
0000
0000
0100
0000
0000
,  // measure 59
0001
0000
0000
0010
0000
0000
0100
0000
0001
0000
0000
0010
0000
0000
0100
0000
,  // measure 60
1000
0000
0100
0000
0001
0000
1000
0000
0001
0000
0010
0000
0100
0001
1000
0000
,  // measure 61
0010
0100
0001
1000
0100
0000
0100
0000
0010
0000
1000
0100
0001
1000
0001
0010
,  // measure 62
0100
0001
0100
0010
0001
1000
0001
0100
,  // measure 63
0010
0000
0100
0001
1000
0000
0010
0000
0001
0000
1000
0000
0001
0000
0100
0000
,  // measure 64
1000
0010
0100
0001
1000
0001
0010
0100
,  // measure 65
0010
0000
0100
0001
1000
0000
0100
0000
0001
0000
0010
0100
0001
0000
1000
0000
,  // measure 66
0100
0010
0001
1000
0001
0100
0001
0100
,  // measure 67
1000
0001
0100
0010
0001
1000
0001
0100
,  // measure 68
1000
0000
0010
0000
0001
0000
1000
0000
0001
0000
0100
0000
0010
0000
1000
0100
,  // measure 69
0001
0000
0010
0000
0001
0000
1000
0000
0001
0000
0100
0000
0010
0000
0001
0100
,  // measure 70
1000
0000
0100
0000
0001
0000
0100
0000
0010
0000
0010
0000
0100
0000
0001
0100
,  // measure 71
1000
0000
0010
0000
0001
0000
1000
0000
0001
0000
0100
0000
0010
0000
0001
0100
,  // measure 72
1000
0000
0010
0000
0001
0000
1000
0000
0001
0000
0100
0000
0010
0000
0001
0100
,  // measure 73
1000
0000
0010
0000
0001
0000
1000
0000
0001
0000
0100
0000
0010
0000
0001
0100
,  // measure 74
1000
0000
0010
0100
0001
0000
0010
0000
0001
0000
1000
0000
0001
0000
0100
0000
,  // measure 75
0010
0000
0100
0001
0100
0000
1000
0000
0001
0000
0100
0000
0010
0000
1000
0100
,  // measure 76
0001
0000
0001
0000
1000
0000
0001
0000
0100
0000
0010
0000
1000
0100
0001
0100
,  // measure 77
0001
0010
0100
0010
0001
1000
0001
0100
,  // measure 78
1000
0001
0100
0010
0001
1000
0001
0100
,  // measure 79
0010
0000
0001
0000
1000
0000
0001
0000
0100
0000
0010
0000
0001
1000
0001
0100
,  // measure 80
1000
0000
0001
0010
1000
0000
0001
0000
0100
0000
0010
0010
0001
0100
0001
0100
,  // measure 81
1000
0000
0010
0100
0001
0000
1000
0000
0100
0000
0010
0100
0001
0000
1000
0000
,  // measure 82
0100
0000
0010
0100
0001
0000
1000
0000
0100
0000
0001
0010
0100
0000
0001
0000
,  // measure 83
0010
0000
0001
1000
0100
0000
0001
0000
0010
0000
0100
0001
1000
0001
0010
0100
,  // measure 84
0002
0000
0000
0000
,  // measure 85
0000
0003
0020
0000
,  // measure 86
0200
0000
0000
0330
,  // measure 87
0001
0100
1000
0200
,  // measure 88
0000
0000
0000
0300
,  // measure 89
0002
0003
0200
0300
,  // measure 90
2002
0000
0000
3003
,  // measure 91
0100
1000
0001
0200
,  // measure 92
0000
0000
0000
0000
,  // measure 93
0000
0000
0000
0300
;
