#VERSION:0.83;
#TITLE:chemistry;
#SUBTITLE:;
#ARTIST:Gigi Perez;
#TITLETRANSLIT:;
#SUBTITLETRANSLIT:;
#ARTISTTRANSLIT:;
#GENRE:;
#ORIGIN:;
#CREDIT:;
#BANNER:;
#BACKGROUND:;
#PREVIEWVID:;
#JACKET:;
#CDIMAGE:;
#DISCIMAGE:;
#LYRICSPATH:;
#CDTITLE:;
#MUSIC:Gigi Perez - Chemistry (Lyric Video).ogg;
#OFFSET:0.000000;
#SAMPLESTART:100.059883;
#SAMPLELENGTH:12.000000;
#SELECTABLE:YES;
#BPMS:0.000=174.000;
#STOPS:0.000=0.100,
62.000=0.300;
#DELAYS:;
#WARPS:;
#TIMESIGNATURES:0.000=4=4;
#TICKCOUNTS:0.000=4;
#COMBOS:0.000=1;
#SPEEDS:0.000=1.000=0.000=0;
#SCROLLS:0.000=1.000;
#FAKES:;
#LABELS:0.000=Song Start;
#BGCHANGES:;
#KEYSOUNDS:;
#ATTACKS:
;

//---------------dance-single - ----------------
#NOTEDATA:;
#CHARTNAME:;
#STEPSTYPE:dance-single;
#DESCRIPTION:;
#CHARTSTYLE:;
#DIFFICULTY:Hard;
#METER:11;
#RADARVALUES:0.468463,0.635705,0.031667,0.228703,0.000000,932.000000,923.000000,9.000000,65.000000,0.000000,0.000000,0.000000,0.000000,0.000000,0.468463,0.635705,0.031667,0.228703,0.000000,932.000000,923.000000,9.000000,65.000000,0.000000,0.000000,0.000000,0.000000,0.000000;
#CREDIT:;
#NOTES:
// measure 0
0000
0000
0000
0000
,  // measure 1
0000
0000
0000
0000
,  // measure 2
0000
0000
0000
0000
,  // measure 3
0000
0000
0000
0000
,  // measure 4
0000
0000
0000
0000
,  // measure 5
0000
0000
0000
0000
,  // measure 6
0000
0000
0000
0000
,  // measure 7
0000
0000
0000
0000
,  // measure 8
0100
0010
0001
1000
0001
0100
0010
0001
,  // measure 9
1000
0001
0100
0010
0001
1000
0001
0100
,  // measure 10
0001
0100
0010
0001
1000
0001
0100
0010
,  // measure 11
0001
1000
0001
0100
0010
0001
0100
0001
,  // measure 12
0100
0010
0001
1000
0001
0100
0010
0001
,  // measure 13
0100
0001
0100
0010
0001
1000
0001
0100
,  // measure 14
0010
0001
1000
0001
0100
0010
0001
1000
,  // measure 15
0001
0100
0001
1000
0100
0002
0000
0000
,  // measure 16
0000
0000
0000
0000
0003
0000
0100
1000
,  // measure 17
0000
0001
0000
0100
0000
0020
0000
0000
,  // measure 18
0000
0000
0030
0010
,  // measure 19
1000
0100
0000
0001
0100
2000
0000
0000
,  // measure 20
0000
0000
0000
0000
3000
0000
0100
1000
,  // measure 21
0000
0001
0000
0100
0000
0000
0010
0000
,  // measure 22
0100
0000
0001
0010
0000
0000
0001
0000
,  // measure 23
1000
0100
0000
0001
0000
0000
0020
0000
,  // measure 24
0000
0000
0000
0000
0030
0000
0001
0100
,  // measure 25
0000
1000
0000
0100
0000
0010
0200
0000
,  // measure 26
0000
0000
0000
0000
0300
0000
1000
0100
,  // measure 27
0000
0001
0000
0010
0000
0000
0100
0000
,  // measure 28
0001
0000
1000
0000
0100
0001
0000
0100
,  // measure 29
0000
0000
0100
0000
0001
0010
0000
0000
,  // measure 30
0001
0000
0010
0000
0100
0000
0100
0010
,  // measure 31
1000
0001
0010
0001
0100
0010
0001
1000
,  // measure 32
0001
0100
0010
0001
1000
0001
0100
0010
,  // measure 33
0001
1000
0001
0100
1000
1000
0001
0100
,  // measure 34
0010
0001
0100
0001
0100
0010
0001
1000
,  // measure 35
0001
0100
0010
0001
1000
0001
0100
0010
,  // measure 36
0001
0100
0001
0100
0001
0100
0010
0001
,  // measure 37
1000
0001
0100
0010
0001
1000
0001
0100
,  // measure 38
0010
0001
1000
0001
0100
0010
0001
1000
,  // measure 39
0001
0100
0001
1000
0100
0001
0100
0010
,  // measure 40
0001
0100
0001
0100
0001
1000
0100
0001
,  // measure 41
0100
0010
0001
0100
0001
0100
0010
0001
,  // measure 42
1000
0001
0100
0010
0001
0100
0001
0100
,  // measure 43
0010
0001
0100
1000
0001
0100
0010
0001
,  // measure 44
1000
0001
0100
0010
0001
0100
0001
0100
,  // measure 45
0010
0001
1000
0001
0100
0010
0001
1000
,  // measure 46
0001
0100
0010
0001
1000
0001
0100
0010
,  // measure 47
0001
0100
0001
0100
0010
0001
0100
0001
,  // measure 48
0100
0010
0001
1000
0001
0100
0010
0001
,  // measure 49
0100
0001
0100
0010
0001
1000
0001
0100
,  // measure 50
0010
0001
0100
0001
0100
0010
0001
1000
,  // measure 51
0001
0100
0010
0001
1000
0001
0100
0010
,  // measure 52
0001
1000
0001
0100
0010
0001
1000
0001
,  // measure 53
0100
0010
0001
1000
0001
0100
0010
0001
,  // measure 54
1000
0001
0100
0010
0001
1000
0001
0100
,  // measure 55
0010
0001
1000
0001
0100
0010
0001
0100
,  // measure 56
2000
0000
0000
0000
,  // measure 57
0000
0000
0000
0000
,  // measure 58
0000
0000
0000
0000
,  // measure 59
0000
0000
0000
0000
3000
0000
0010
0001
,  // measure 60
0100
0000
0010
0100
0001
0000
1000
0100
,  // measure 61
0001
0000
0010
0100
0001
0000
1000
0100
,  // measure 62
0001
0000
0010
0100
0001
0000
1000
0000
,  // measure 63
0100
0001
0010
0200
,  // measure 64
0000
0000
0000
0000
0300
0000
0010
0001
,  // measure 65
0100
1000
0001
0010
0000
0200
0000
0000
,  // measure 66
0000
0000
0000
0000
0300
0000
0100
0001
,  // measure 67
0100
1000
0001
0000
0100
0000
0020
0000
,  // measure 68
0030
0002
0003
0200
,  // measure 69
0300
0020
0030
0002
,  // measure 70
0003
0200
0300
0010
,  // measure 71
0000
0001
0000
0000
0100
0002
0000
0000
,  // measure 72
0000
0000
0000
0000
0003
0000
0001
1000
,  // measure 73
0001
0100
1000
0000
0010
0001
0000
0000
,  // measure 74
0000
0000
0000
0000
0000
0000
0001
1000
,  // measure 75
0001
0100
1000
0100
0000
0000
0020
0000
,  // measure 76
0030
0200
0300
0002
,  // measure 77
0003
2000
3000
0200
,  // measure 78
0300
0020
0030
0001
,  // measure 79
0000
0100
0000
0000
0010
0000
0001
0100
,  // measure 80
0010
0000
0001
0100
1000
0000
0100
0000
,  // measure 81
0000
0010
0000
0000
0100
0000
0001
1000
,  // measure 82
0100
0000
0001
0100
0001
0000
1000
0000
,  // measure 83
0000
0001
0000
0000
0010
0000
0001
0100
,  // measure 84
1000
0000
0010
0001
1000
0000
0100
0000
,  // measure 85
0000
0001
0000
0000
0020
0000
0000
0000
,  // measure 86
0000
0000
0000
0000
,  // measure 87
0000
0000
0030
0000
0100
0001
1000
0001
,  // measure 88
0010
0100
0001
1000
0001
0010
0100
0001
,  // measure 89
1000
0001
0010
0100
0001
1000
0001
0010
,  // measure 90
0100
0001
1000
0001
0010
0100
0001
1000
,  // measure 91
0001
0010
0100
0001
1000
0001
0010
0001
,  // measure 92
0100
0010
0001
0100
0001
0100
0010
0001
,  // measure 93
1000
0001
0100
0010
0001
1000
0001
0100
,  // measure 94
0010
0001
1000
0001
0100
0010
0001
0100
,  // measure 95
0001
0100
0010
0001
0100
0001
0100
0010
,  // measure 96
0001
1000
0001
0100
0010
0001
1000
0001
,  // measure 97
0100
0010
0001
0100
0001
0100
0010
0001
,  // measure 98
1000
0001
0100
0010
0001
0100
0001
0100
,  // measure 99
0010
0001
1000
0001
0100
0010
0001
0100
,  // measure 100
0001
0100
0010
0001
1000
0001
0100
0010
,  // measure 101
0001
1000
0001
0100
0010
0001
0100
0001
,  // measure 102
0100
0010
0001
1000
0001
0100
0010
0001
,  // measure 103
1000
0001
0100
0010
0100
0001
2002
0000
,  // measure 104
0000
0000
0000
0000
,  // measure 105
0000
0000
0000
0000
,  // measure 106
0000
0000
0000
0000
,  // measure 107
0000
0000
0000
0000
3003
0000
0001
0100
,  // measure 108
1000
0000
0010
0100
0001
0000
1000
0100
,  // measure 109
0001
0000
0010
0100
0001
0000
1000
0100
,  // measure 110
0001
0000
0010
0100
0001
0000
1000
0000
,  // measure 111
0100
0010
0001
0020
,  // measure 112
0000
0000
0000
0000
0030
0000
0010
0001
,  // measure 113
0100
0001
0100
1000
0000
0200
0000
0000
,  // measure 114
0000
0000
0000
0000
0300
0000
1000
0001
,  // measure 115
0100
0001
1000
0000
0100
0000
0020
0000
,  // measure 116
0030
0200
0300
0002
,  // measure 117
0003
0020
0030
0200
,  // measure 118
0300
2000
3000
0010
,  // measure 119
0000
0001
0000
0000
0000
2000
0000
0000
,  // measure 120
0000
0000
0000
3000
0000
0000
0001
1000
,  // measure 121
0001
0100
1000
0000
0010
0002
0000
0000
,  // measure 122
0000
0000
0000
0000
0003
0000
0010
0100
,  // measure 123
0001
1000
0001
0010
0000
0000
0200
0000
,  // measure 124
0300
0020
0030
0200
,  // measure 125
0300
2000
3000
0020
,  // measure 126
0030
0002
0003
0100
,  // measure 127
0000
0001
0000
0000
0010
0000
0100
0001
,  // measure 128
1000
0000
0100
0001
0010
0000
0100
0000
,  // measure 129
0000
0001
0000
0000
0100
0000
0001
0100
,  // measure 130
1000
0000
0100
0001
1000
0000
0010
0000
,  // measure 131
0000
0001
0000
0000
1000
0000
0010
0100
,  // measure 132
0001
0000
1000
0100
0001
0000
0010
0000
,  // measure 133
0000
0100
0000
0000
0002
0000
0000
0000
,  // measure 134
0000
0000
0000
0000
,  // measure 135
0000
0000
0000
2000
,  // measure 136
0000
0000
3003
0100
,  // measure 137
0001
0010
0000
1000
0000
0200
0000
0000
,  // measure 138
0000
0000
0000
0000
0300
0001
1000
0000
,  // measure 139
0100
0001
0000
1000
0100
0002
0000
0000
,  // measure 140
0000
0000
0000
0003
0000
0001
0010
0100
,  // measure 141
0001
1000
0000
0000
0100
0001
0000
0010
,  // measure 142
0000
0100
0000
0001
0000
1000
0000
0100
,  // measure 143
0000
0010
0000
0001
0000
0200
0000
0000
,  // measure 144
0000
0000
0000
0300
0000
0001
0010
0100
,  // measure 145
0000
0001
0000
1000
0100
0002
0000
0000
,  // measure 146
0000
0000
0000
0003
0000
1000
0100
0000
,  // measure 147
0000
0100
0010
0000
0010
0002
0000
0000
,  // measure 148
0000
0000
0003
0100
,  // measure 149
0010
0001
0000
0000
0100
0002
0000
0000
,  // measure 150
0000
0000
0003
0010
,  // measure 151
0100
0001
0000
0000
1000
0220
0000
0000
,  // measure 152
0000
0000
0330
0001
,  // measure 153
0100
1000
0000
0000
0001
0220
0000
0000
,  // measure 154
0000
0000
0330
0001
,  // measure 155
1000
0100
0000
0000
0001
0220
0000
0000
,  // measure 156
0000
0000
0330
0010
,  // measure 157
0001
0100
0000
0000
0010
0110
0000
0000
,  // measure 158
0001
1001
0000
0000
0010
0110
0000
0000
,  // measure 159
0001
1001
0000
0000
0010
0100
0001
1000
,  // measure 160
0001
0010
0100
0001
1000
0010
0001
0100
,  // measure 161
0001
0100
0010
0001
1000
0001
0100
0010
,  // measure 162
0001
1000
0001
0100
0010
0001
1000
0001
,  // measure 163
0100
0010
0001
0100
0001
0100
0010
0001
,  // measure 164
1000
0001
0100
0010
0001
0100
0001
0100
,  // measure 165
0010
0001
1000
0001
0100
0010
0001
0100
,  // measure 166
0001
0100
0010
0001
1000
0001
0100
0010
,  // measure 167
0001
1000
0001
0100
0010
0001
0100
0001
,  // measure 168
0100
0010
0001
1000
0001
0100
0010
0001
,  // measure 169
1000
0001
0100
0010
0001
0100
0001
0100
,  // measure 170
0010
0001
1000
0001
0100
0010
0001
1000
,  // measure 171
0001
0100
0010
0001
1000
0001
0100
0010
,  // measure 172
0001
1000
0001
0100
0010
0001
0100
0001
,  // measure 173
0100
0010
0001
1000
0001
0100
0010
0001
,  // measure 174
0100
0001
0100
0010
0001
1000
0001
0100
,  // measure 175
0010
0001
0100
0001
0100
0010
0001
1000
,  // measure 176
0001
0100
0010
0001
1000
0001
0100
0010
,  // measure 177
0001
1000
0001
0100
0010
0001
0100
0001
,  // measure 178
0100
0010
0001
1000
0001
0100
0010
0001
,  // measure 179
1000
0001
0100
0010
0001
1000
0001
0100
,  // measure 180
0010
0001
1000
0001
0100
0001
0010
0001
,  // measure 181
0100
0010
0001
1000
0001
0100
0010
0001
,  // measure 182
1000
0001
0100
0010
0001
1000
0001
0100
,  // measure 183
0010
0001
1000
0001
0100
0010
2002
0000
,  // measure 184
0000
0000
0000
0000
3003
0000
0100
0001
,  // measure 185
0000
1000
0000
0100
0000
0002
0000
0000
,  // measure 186
0000
0000
0000
0000
,  // measure 187
0000
0000
0000
0000
,  // measure 188
0000
0000
0000
0000
0003
0000
0010
0001
,  // measure 189
0000
0100
0000
0010
0000
0002
0000
0000
,  // measure 190
0000
0000
0000
0003
0000
0010
0000
0001
,  // measure 191
0000
0000
0000
0000
0010
0001
0000
0000
,  // measure 192
0000
0000
0000
0000
0000
0000
0001
0010
,  // measure 193
0000
0010
0000
0001
0000
0000
2000
0000
,  // measure 194
3000
0002
0003
0020
,  // measure 195
0000
0000
0030
0200
,  // measure 196
0000
0000
0300
0020
,  // measure 197
0000
0000
0030
0002
,  // measure 198
0000
0000
0003
0200
,  // measure 199
0000
0000
0000
0000
,  // measure 200
0000
0000
0000
0300
;
