#VERSION:0.83;
#TITLE:chainsaw;
#SUBTITLE:;
#ARTIST:Clark Rainbow;
#TITLETRANSLIT:;
#SUBTITLETRANSLIT:;
#ARTISTTRANSLIT:;
#GENRE:;
#ORIGIN:;
#CREDIT:;
#BANNER:;
#BACKGROUND:;
#PREVIEWVID:;
#JACKET:;
#CDIMAGE:;
#DISCIMAGE:;
#LYRICSPATH:;
#CDTITLE:;
#MUSIC:Clark Rainbow - Chainsaw (official video).ogg;
#OFFSET:0.000000;
#SAMPLESTART:100.059883;
#SAMPLELENGTH:12.000000;
#SELECTABLE:YES;
#BPMS:0.000=155.000;
#STOPS:0.000=0.400;
#DELAYS:;
#WARPS:;
#TIMESIGNATURES:0.000=4=4;
#TICKCOUNTS:0.000=4;
#COMBOS:0.000=1;
#SPEEDS:0.000=1.000=0.000=0;
#SCROLLS:0.000=1.000;
#FAKES:;
#LABELS:0.000=Song Start;
#BGCHANGES:0.000=Clark Rainbow - Chainsaw (official video).mp4=1.000=0=0=1=====,
99999=-nosongbg-=1.000=0=0=0 // don't automatically add -songbackground-
;
#KEYSOUNDS:;
#ATTACKS:
;

//---------------dance-single - ----------------
#NOTEDATA:;
#CHARTNAME:;
#STEPSTYPE:dance-single;
#DESCRIPTION:;
#CHARTSTYLE:;
#DIFFICULTY:Hard;
#METER:15;
#RADARVALUES:0.725926,0.739360,0.000000,0.024758,0.312564,821.000000,821.000000,0.000000,4.000000,0.000000,0.000000,0.000000,0.000000,0.000000,0.725926,0.739360,0.000000,0.024758,0.312564,821.000000,821.000000,0.000000,4.000000,0.000000,0.000000,0.000000,0.000000,0.000000;
#CREDIT:;
#NOTES:
// measure 0
0000
0000
0000
0000
,  // measure 1
0000
0000
0000
0000
,  // measure 2
0000
0000
0000
0000
,  // measure 3
0000
0000
0000
0000
,  // measure 4
0001
0000
0000
0100
1000
0100
0010
0001
,  // measure 5
1000
0001
0100
1000
0000
0010
0001
1000
,  // measure 6
0000
0100
0000
0100
0000
0010
0000
0001
,  // measure 7
0000
0100
0000
0010
0000
0000
0100
0001
,  // measure 8
0010
0001
0100
0001
0100
0010
0001
0100
,  // measure 9
0001
0100
1000
0100
0010
0001
0100
0001
,  // measure 10
0100
0010
0001
0100
0001
0100
0010
0001
,  // measure 11
1000
0001
0100
0010
0001
0100
0001
0100
,  // measure 12
0010
0001
1000
0001
0100
0010
0010
0001
,  // measure 13
0100
0001
0100
0010
0001
0100
0001
0100
,  // measure 14
0010
0001
1000
0001
0100
0001
0100
0001
,  // measure 15
0001
0000
1000
0000
0100
0000
0001
0000
0100
0000
0010
0001
0000
0010
0100
0000
,  // measure 16
0010
0001
0100
0010
0001
1000
0001
0100
,  // measure 17
1000
0000
0100
0000
1000
0000
0001
0000
0100
0000
0010
0001
0000
0100
0010
0000
,  // measure 18
0100
0010
0001
0100
0001
0100
0010
0001
,  // measure 19
1000
0000
0001
0000
0100
0000
0010
0000
0100
0001
0100
0010
0001
1000
0001
0100
,  // measure 20
1000
0010
0001
0100
0001
0100
0001
0100
,  // measure 21
0010
0000
0001
0000
0100
0000
0001
0000
0100
0000
0010
0100
0000
0001
1000
0000
,  // measure 22
0100
0010
0001
0100
0001
0100
0010
0001
,  // measure 23
0100
0000
0001
0000
0100
0000
0010
0000
0100
0001
0100
0010
0001
1000
0001
0100
,  // measure 24
1000
0010
0001
0100
0001
0100
1000
0100
,  // measure 25
0010
0000
0100
0000
0010
0000
0100
0000
0001
0000
0100
0010
0000
0001
0100
0000
,  // measure 26
1000
0100
0010
0001
0100
0001
0100
0010
,  // measure 27
0001
0000
1000
0000
0001
0000
0100
0000
0010
0001
0100
0010
0001
1000
0001
0100
,  // measure 28
1000
0010
0001
0100
0001
0100
0010
0001
,  // measure 29
1000
0000
0001
0000
0100
0000
0010
0000
0001
0000
0100
0010
0000
0100
0001
0000
,  // measure 30
1000
0100
0010
0001
1000
0001
0100
0010
,  // measure 31
0001
0000
0100
0000
0001
0000
0100
0000
0010
0001
0100
0010
0001
1000
0001
0100
,  // measure 32
1000
0000
0000
0000
0010
0000
0100
0000
0001
0000
0000
0000
0010
0000
1000
0100
,  // measure 33
0001
0000
0000
0000
0100
0000
1000
0001
0100
0000
0000
0000
0010
0000
0100
0000
,  // measure 34
0001
0000
0100
0000
1000
0000
0100
0010
,  // measure 35
0001
0000
0000
0000
0100
0000
0000
0000
0010
0001
1000
0001
0100
0000
0001
0100
,  // measure 36
1000
0001
0100
0010
0001
0100
0001
0100
,  // measure 37
0010
0001
1000
0001
0100
0010
0001
0100
,  // measure 38
0001
0000
0100
0000
0010
0000
0001
0000
0100
0000
0001
0000
0100
0000
1000
0001
,  // measure 39
0100
0000
0100
0000
0010
0000
0001
0100
1000
0001
0100
0010
0001
1000
0001
0100
,  // measure 40
1000
0001
0100
0001
0100
1000
0100
0010
,  // measure 41
0001
1000
0001
0100
0010
0001
0100
0001
,  // measure 42
0100
0001
0010
0001
0100
0001
0100
0010
,  // measure 43
0001
0000
0100
0000
0001
0000
0100
0000
0010
0001
0100
0010
0001
1000
0001
0100
,  // measure 44
1000
0000
0100
0001
0001
1000
0001
0100
,  // measure 45
0010
0001
0100
0001
0100
0010
0001
1000
,  // measure 46
0001
0100
0010
0001
0100
0001
0100
0010
,  // measure 47
0001
0000
1000
0000
0001
0000
0100
0000
0010
0000
0010
0100
0000
0001
0100
0000
,  // measure 48
0010
0001
0100
0010
0001
1000
0001
0100
,  // measure 49
0010
0000
0001
0000
0100
0000
0001
0000
0100
0000
1000
0001
0000
0100
0010
0000
,  // measure 50
0100
0100
0010
0001
1000
0001
0100
0010
,  // measure 51
0001
0000
1000
0000
0001
0000
0100
0000
0010
0001
0100
0010
0001
1000
0001
0100
,  // measure 52
1000
0010
0001
0100
0010
0001
0100
0001
,  // measure 53
0100
0000
0010
0000
0001
0000
1000
0000
0001
0000
0100
0010
0000
0001
0010
0000
,  // measure 54
1000
0100
0010
0001
0100
0001
0100
0010
,  // measure 55
0001
0000
1000
0000
0001
0000
0100
0000
0010
0001
0100
0010
0001
1000
0001
0100
,  // measure 56
1000
0010
0001
0100
0001
0100
0010
0001
,  // measure 57
1000
0000
0001
0000
0100
0000
0010
0000
1000
0000
0100
0001
0000
0010
0100
0000
,  // measure 58
0001
0100
0010
0001
0100
0001
0100
0010
,  // measure 59
0001
0000
1000
0000
0001
0000
0100
0000
0010
0001
0100
0010
0001
1000
0001
0100
,  // measure 60
1000
0010
0001
0100
0001
0100
0010
0001
,  // measure 61
1000
0000
0001
0000
0100
0000
0010
0000
0100
0000
1000
0001
0000
0100
0010
0000
,  // measure 62
0001
0100
0010
0001
1000
0001
0100
0010
,  // measure 63
0001
0000
1000
0000
0001
0000
0100
0000
0010
0001
0100
0010
0001
1000
0001
0100
,  // measure 64
1000
0100
0010
0001
2000
0000
0000
0000
,  // measure 65
0000
0000
0000
0000
3000
0100
0001
0010
,  // measure 66
0001
0100
0001
0100
0010
0001
1000
0001
,  // measure 67
0200
0000
0000
0000
0000
0000
0000
0000
0300
0000
0100
0000
0001
1000
0100
0001
,  // measure 68
0010
0000
0100
0001
0000
1000
0000
0000
,  // measure 69
0001
1000
0100
0001
0000
0010
0001
0100
,  // measure 70
0000
1000
0100
0010
0001
0100
0001
0100
,  // measure 71
1000
0010
0001
0100
0010
0001
1000
0001
,  // measure 72
0100
0001
1000
0200
0000
0000
0000
0000
,  // measure 73
0000
0000
0000
0000
0300
0000
0010
0001
,  // measure 74
1000
0001
0100
2000
0000
0000
0000
0000
,  // measure 75
0000
0000
0000
0000
0000
0000
3000
0000
0010
0001
0100
0010
0001
1000
0001
0100
,  // measure 76
1000
0001
0100
0010
0001
1000
0001
0100
,  // measure 77
0010
0001
0100
0001
0100
0010
0001
1000
,  // measure 78
0001
0100
0010
0100
0001
0100
0010
0001
,  // measure 79
1000
0000
0001
0000
0100
0000
0010
0000
1000
0000
0100
0001
0000
0010
0100
0000
,  // measure 80
0001
0010
0001
0100
0001
0100
0010
0001
,  // measure 81
1000
0000
0001
0000
0100
0000
0010
0000
1000
0000
0100
0001
0000
0010
0100
0000
,  // measure 82
0001
0010
0001
0100
0001
0100
0010
0001
,  // measure 83
1000
0000
0001
0000
0100
0000
0010
0000
0100
0010
0001
1000
0001
0100
0001
0100
,  // measure 84
1000
0010
0001
0100
0001
0100
0010
0001
,  // measure 85
1000
0000
0001
0000
0100
0000
0010
0000
1000
0000
0100
0001
0000
0010
0100
0000
,  // measure 86
0001
0100
0010
0001
0100
0001
0100
0010
,  // measure 87
0001
0000
1000
0000
0001
0000
0100
0000
0010
0001
0100
0010
0001
1000
0001
0100
,  // measure 88
1000
0010
0001
0100
0001
0100
0010
0001
,  // measure 89
1000
0000
0001
0000
0100
0000
0010
0000
1000
0000
0100
0001
0000
0010
0100
0000
,  // measure 90
0001
0100
0010
0001
1000
0001
0100
0010
,  // measure 91
0001
0000
1000
0000
0001
0000
0100
0000
0010
0001
0100
0010
0001
1000
0001
0100
,  // measure 92
1000
0100
0010
0001
1000
0001
0100
0010
,  // measure 93
0001
0000
1000
0000
0001
0000
0100
0000
0010
0000
1000
0100
0000
0001
0010
0000
,  // measure 94
0100
0010
0001
0100
0001
0100
0010
0001
,  // measure 95
1000
0000
0001
0000
0100
0000
0001
0000
0100
0010
0001
0100
0001
0100
1000
0001
,  // measure 96
0100
0000
0000
0001
0010
0100
0001
1000
,  // measure 97
0001
0010
0100
1000
0010
0001
1000
0001
,  // measure 98
0100
0000
0100
0010
0000
0100
0001
1000
,  // measure 99
0001
0010
0001
0100
0000
0010
0001
0100
,  // measure 100
1000
0010
0001
0100
1000
0001
0100
0000
,  // measure 101
0010
0001
0100
1000
0100
0001
1000
0001
,  // measure 102
0010
0001
0100
1000
0000
0100
0001
1000
,  // measure 103
0001
0000
0001
0000
0100
0000
0010
0000
1000
0000
0100
0001
0000
0010
0100
0000
;
