#VERSION:0.83;
#TITLE:catch catch;
#SUBTITLE:;
#ARTIST:YENA;
#TITLETRANSLIT:;
#SUBTITLETRANSLIT:;
#ARTISTTRANSLIT:;
#GENRE:;
#ORIGIN:;
#CREDIT:;
#BANNER:;
#BACKGROUND:;
#PREVIEWVID:;
#JACKET:;
#CDIMAGE:;
#DISCIMAGE:;
#LYRICSPATH:;
#CDTITLE:;
#MUSIC:CATCH CATCH.ogg;
#OFFSET:0.000000;
#SAMPLESTART:100.059883;
#SAMPLELENGTH:12.000000;
#SELECTABLE:YES;
#BPMS:0.000=138.000;
#STOPS:0.000=2.000;
#DELAYS:;
#WARPS:;
#TIMESIGNATURES:0.000=4=4;
#TICKCOUNTS:0.000=4;
#COMBOS:0.000=1;
#SPEEDS:0.000=1.000=0.000=0;
#SCROLLS:0.000=1.000;
#FAKES:;
#LABELS:0.000=Song Start;
#BGCHANGES:;
#KEYSOUNDS:;
#ATTACKS:
;

//---------------dance-single - ----------------
#NOTEDATA:;
#CHARTNAME:;
#STEPSTYPE:dance-single;
#DESCRIPTION:;
#CHARTSTYLE:;
#DIFFICULTY:Hard;
#METER:13;
#RADARVALUES:0.584854,0.757181,0.644119,0.043669,0.215616,750.000000,632.000000,118.000000,8.000000,0.000000,0.000000,0.000000,0.000000,0.000000,0.584854,0.757181,0.644119,0.043669,0.215616,750.000000,632.000000,118.000000,8.000000,0.000000,0.000000,0.000000,0.000000,0.000000;
#CREDIT:;
#NOTES:
// measure 0
0000
0000
0000
0000
,  // measure 1
0000
0000
0000
0000
,  // measure 2
0000
0000
0000
0000
,  // measure 3
0000
0000
0000
0000
,  // measure 4
1001
0000
0100
0001
0100
0001
0110
0000
,  // measure 5
0110
0000
0100
0010
0001
0100
1001
0000
,  // measure 6
0101
0000
0001
0100
0001
0100
1010
0000
,  // measure 7
0001
0000
0000
0100
0000
0000
0010
0000
0100
0000
0001
0000
1000
0000
0100
0000
,  // measure 8
0110
0000
0001
1000
0100
0001
0110
0000
,  // measure 9
0101
0000
0100
0001
0010
0100
1001
0000
,  // measure 10
1001
0000
0010
0100
0001
0100
0101
0000
,  // measure 11
0001
0000
0100
0000
0000
0000
0010
0000
0000
0100
0010
0000
0001
0000
0100
0000
,  // measure 12
0101
0000
0100
0010
0101
0000
0101
0000
,  // measure 13
0010
0000
0000
0100
0000
0000
0001
0000
0000
0000
0000
0000
0100
0000
1000
0000
,  // measure 14
0101
0000
0010
0001
0101
0000
0010
0000
,  // measure 15
0100
0000
0000
0001
0000
0000
0010
0000
0000
0000
0000
0000
0001
0000
0100
0000
,  // measure 16
0011
0000
0100
0010
0110
0000
0001
0100
,  // measure 17
1000
0000
0000
0010
0000
0000
0100
0000
0000
0000
0000
0000
0001
0000
0100
0000
,  // measure 18
2000
0000
0000
0000
0000
0100
3100
0010
,  // measure 19
0100
0001
0010
1000
0100
0001
1001
0000
,  // measure 20
1001
0000
0110
0000
0100
0010
0110
0000
,  // measure 21
1001
0000
0110
0000
0001
0100
1000
0010
,  // measure 22
0101
0000
0110
0000
0001
0100
1000
0010
,  // measure 23
0100
0000
0000
0010
0000
0000
0100
0000
0001
0000
0100
0000
0010
0000
0000
0000
,  // measure 24
0101
0000
0110
0000
0001
0100
1100
0000
,  // measure 25
0101
0000
0101
0000
0100
1001
0000
0110
,  // measure 26
0000
0000
0000
0000
0110
0000
0000
0000
0010
0000
0000
0100
0000
0000
0001
0000
,  // measure 27
2000
0000
0000
0000
3000
0000
0100
0001
0100
0001
0100
0010
0100
0000
0001
0000
,  // measure 28
0000
0000
0001
1000
0000
0100
0001
0000
,  // measure 29
0100
0001
0000
0010
0000
0000
0100
0001
,  // measure 30
0001
0000
0100
0000
0001
0000
0100
0010
,  // measure 31
0100
0000
0000
0001
0000
0000
0010
0000
0000
0000
0100
0000
0001
0000
1000
0000
,  // measure 32
0100
0010
0000
0100
0001
0000
0010
0100
,  // measure 33
0001
0000
0100
0000
0000
0000
0010
0000
0000
0100
0001
1000
0001
0010
0100
0001
,  // measure 34
0010
0000
0000
0100
0000
0000
0001
0000
1000
0000
0000
0100
0000
0000
0010
0000
,  // measure 35
0100
0001
1000
0100
0001
0100
0001
0010
0100
0000
0000
0000
0110
0000
0000
0000
,  // measure 36
0101
0000
0100
0100
0001
0100
1001
0000
,  // measure 37
0110
0000
0100
0001
0100
0010
1001
0000
,  // measure 38
0110
0000
0100
0001
0100
0100
1010
0000
,  // measure 39
0101
0000
0000
0001
0000
0000
0010
0000
0100
0000
0001
0000
1000
0000
0100
0000
,  // measure 40
0011
0000
0001
0100
0001
0100
1001
0000
,  // measure 41
0101
0000
0010
0100
0001
1000
1001
0000
,  // measure 42
0110
0000
0100
0001
0100
0010
1001
0000
,  // measure 43
0001
0000
0000
0100
0000
0000
0010
0000
0001
0000
0100
0000
1000
0000
0000
0000
,  // measure 44
0100
0000
0010
0000
0100
0001
0010
0100
0001
0000
1000
0100
0001
0000
0010
0000
,  // measure 45
0100
0000
0001
0000
0100
0001
0010
0100
0001
1000
0100
0000
0001
0000
0010
0000
,  // measure 46
0100
0000
0001
0000
0010
0100
0001
1000
0001
0010
0100
0000
1000
0010
0100
0000
,  // measure 47
0001
0000
0000
1000
0000
0000
0010
0000
0100
0000
0001
0000
0100
0000
0010
0000
,  // measure 48
1001
0000
0001
0100
1001
0000
0101
0000
,  // measure 49
0010
0000
0000
0100
0000
0000
0001
0000
0000
0000
0000
0000
1001
0000
0100
0000
,  // measure 50
0101
0000
0001
0100
0110
0000
1001
0000
,  // measure 51
0101
0000
0000
0001
0000
0000
0100
0000
0000
0000
0000
0000
0110
0000
0000
0000
,  // measure 52
0000
0000
0100
0001
1000
0000
0010
0000
0001
0000
0100
0000
0010
0000
0001
0000
,  // measure 53
1000
0001
0100
0010
0001
0100
0001
0100
,  // measure 54
0220
0000
0330
0110
0000
0001
1001
0100
,  // measure 55
0010
0001
0100
0010
0001
0100
1000
0010
,  // measure 56
0110
0000
0101
0000
0100
0010
1001
0000
,  // measure 57
0101
0000
0110
0000
0100
0001
0100
1000
,  // measure 58
0101
0000
0110
0000
0100
0001
1000
0100
,  // measure 59
0100
0000
0000
0010
0000
0000
0100
0001
1000
0000
0100
0000
0010
0000
0000
0000
,  // measure 60
0101
0000
0110
0000
0001
0100
1001
0000
,  // measure 61
0101
0000
0110
0000
0001
0100
0000
0010
,  // measure 62
0000
0000
0000
0000
0010
0000
0100
0000
0001
0000
0000
0010
0000
0000
1000
0000
,  // measure 63
2002
0000
0000
0000
3003
0000
0010
0100
0001
1000
0001
0010
0100
0000
0001
0000
,  // measure 64
0000
0100
0000
0001
0000
1000
0100
0001
,  // measure 65
0010
0100
0000
0010
0000
0100
0001
1000
,  // measure 66
0001
0000
0010
0000
0001
0000
0001
0100
,  // measure 67
0010
0000
0000
0001
0000
0000
0100
0000
0000
0000
0010
0000
0100
0000
0001
0000
,  // measure 68
0000
0100
0000
1000
0100
0000
0001
0011
,  // measure 69
0000
0000
0101
0000
0000
0000
0101
0000
0000
0001
0100
0010
0001
1000
0001
0100
,  // measure 70
1000
0000
0000
0010
0000
0000
0100
0000
0001
0000
0000
0100
0000
0000
0010
0000
,  // measure 71
0001
0100
0010
0001
1000
0001
0100
0010
0001
0000
0000
0010
0100
0000
0001
0000
,  // measure 72
0110
0000
0100
0001
0100
0010
1001
0000
,  // measure 73
0101
0000
0010
0100
0001
1000
1001
0000
,  // measure 74
0110
0000
0100
0001
0100
0010
1001
0000
,  // measure 75
0100
0000
0000
0010
0000
0000
0001
0000
0100
0000
0001
0000
0100
0000
1000
0000
,  // measure 76
1001
0000
0100
0001
0100
0010
1001
0000
,  // measure 77
0101
0000
0010
0100
0001
1000
1001
0000
,  // measure 78
0101
0000
0010
0100
0001
1000
1001
0000
,  // measure 79
0001
0000
0000
0100
0000
0000
0010
0000
0001
0000
0100
0000
0001
0000
0010
0000
,  // measure 80
0100
0000
0001
1000
0100
0001
0100
0001
0010
0000
0100
0000
0010
0000
0001
0000
,  // measure 81
0100
0010
0001
0100
1000
0100
1000
0000
,  // measure 82
0000
0000
0100
0001
0000
0000
0010
0000
0001
0000
0100
0000
1000
0000
0010
0000
,  // measure 83
0100
0000
0000
0001
0000
0000
1000
0000
0010
0000
0001
0000
0100
0000
1000
0000
,  // measure 84
0100
0000
0100
0000
0100
1000
0100
0001
,  // measure 85
0110
0010
0000
0100
0000
0001
1010
0100
,  // measure 86
0110
0000
0100
0000
0000
0000
0010
0000
0100
0001
1000
0000
0110
0000
0001
0000
,  // measure 87
1001
0000
0110
0000
0101
0000
0001
0100
,  // measure 88
0010
0000
0000
0001
0000
0000
0100
0000
0000
0000
0010
0000
0001
0000
0100
0000
,  // measure 89
1000
0110
0000
0110
0000
0101
0000
0101
,  // measure 90
0000
0000
1100
0000
0000
0000
0101
0000
0000
0001
0100
0010
0001
1000
0001
0100
,  // measure 91
1000
0000
0000
0001
0000
0000
0100
0000
0010
0001
1000
0001
0010
0100
1000
0100
,  // measure 92
0001
0010
0100
0001
1000
0001
0010
0100
0001
0000
0000
0000
0110
0000
0000
0000
,  // measure 93
0110
0000
1000
0100
0001
0100
0101
0000
,  // measure 94
1001
0000
0010
0100
0001
1000
1001
0000
,  // measure 95
0110
0000
0010
0100
0001
1000
1001
0000
,  // measure 96
1000
0000
0000
0001
0000
0000
0100
0000
0010
0000
0001
0000
0100
0000
1000
0000
,  // measure 97
1001
0000
0010
0001
0100
0001
1100
0000
,  // measure 98
0101
0000
0010
0100
0001
1000
1001
0000
,  // measure 99
0101
0000
0010
0100
0001
1000
1001
0000
,  // measure 100
0100
0000
0000
0010
0000
0000
0001
0000
1000
0000
0001
0000
0110
0000
0000
0000
,  // measure 101
1001
0000
0000
1000
0001
0100
2002
0000
,  // measure 102
0000
0000
0000
3003
;
