#VERSION:0.83;
#TITLE:carrie bradshaw;
#SUBTITLE:;
#ARTIST:Kylie Cantrall;
#TITLETRANSLIT:;
#SUBTITLETRANSLIT:;
#ARTISTTRANSLIT:;
#GENRE:;
#ORIGIN:;
#CREDIT:;
#BANNER:;
#BACKGROUND:;
#PREVIEWVID:;
#JACKET:;
#CDIMAGE:;
#DISCIMAGE:;
#LYRICSPATH:;
#CDTITLE:;
#MUSIC:Carrie Bradshaw.ogg;
#OFFSET:0.000000;
#SAMPLESTART:100.059883;
#SAMPLELENGTH:12.000000;
#SELECTABLE:YES;
#BPMS:0.000=85.000;
#STOPS:0.000=0.200;
#DELAYS:;
#WARPS:;
#TIMESIGNATURES:0.000=4=4;
#TICKCOUNTS:0.000=4;
#COMBOS:0.000=1;
#SPEEDS:0.000=1.000=0.000=0;
#SCROLLS:0.000=1.000;
#FAKES:;
#LABELS:0.000=Song Start;
#BGCHANGES:;
#KEYSOUNDS:;
#ATTACKS:
;

//---------------dance-single - ----------------
#NOTEDATA:;
#CHARTNAME:;
#STEPSTYPE:dance-single;
#DESCRIPTION:;
#CHARTSTYLE:;
#DIFFICULTY:Hard;
#METER:11;
#RADARVALUES:0.373877,0.410650,0.022957,0.057393,0.327143,456.000000,452.000000,4.000000,10.000000,0.000000,0.000000,0.000000,0.000000,0.000000,0.373877,0.410650,0.022957,0.057393,0.327143,456.000000,452.000000,4.000000,10.000000,0.000000,0.000000,0.000000,0.000000,0.000000;
#CREDIT:;
#NOTES:
// measure 0
0000
0000
0000
0000
,  // measure 1
0000
0000
0000
0000
,  // measure 2
0000
0000
0000
0000
,  // measure 3
0000
0000
0000
0000
,  // measure 4
0110
0000
0001
0000
0010
0000
0000
0000
0000
0000
0000
0001
0100
0000
0000
0000
,  // measure 5
0000
0001
1000
0001
0100
0010
0001
0000
0100
0000
0010
0000
0001
0100
0001
1000
,  // measure 6
0100
0000
0010
0100
0001
0000
0000
0000
0000
0000
1000
0000
0100
0000
0001
0010
,  // measure 7
0100
0000
0001
0000
0100
0010
0001
0010
0100
0000
0110
0000
0000
0000
0000
0000
,  // measure 8
0011
0100
0010
0000
0000
0001
0100
0000
,  // measure 9
0000
0000
1000
0100
0001
0000
0010
0000
0100
0000
0010
0000
0100
0001
0100
1000
,  // measure 10
0010
0000
0000
0000
0000
0000
0100
0000
0000
0001
0000
0000
1000
0000
0000
0001
0000
0000
0010
0000
0000
0000
0000
0000
0000
0000
0000
0000
0000
0000
0100
0000
0000
0001
0000
0000
0010
0000
0000
0000
0100
0000
0000
0000
0001
0000
0000
0000
,  // measure 11
0020
0000
0000
0000
0130
0000
0010
0100
0001
0000
0000
0000
0100
0001
0100
0001
,  // measure 12
0020
0000
0000
0000
0030
0000
0100
0010
,  // measure 13
0000
0010
0100
0000
0010
0000
0100
0001
0010
0000
0100
0010
0001
0100
0000
0000
,  // measure 14
0020
0000
0000
0000
0000
0000
0000
0000
0030
0000
0000
0000
0010
0001
0100
0010
,  // measure 15
0001
0000
0000
0000
0000
0000
0100
0000
0000
0001
0000
0000
0010
0000
0000
0000
0000
0000
0100
0000
0000
0000
0000
0000
0001
0000
0000
0000
0010
0000
0000
0000
0000
0000
0000
0000
0000
0000
0000
0000
0000
0000
0010
0000
0000
0000
0000
0000
,  // measure 16
0001
0100
0001
0100
1000
0100
0001
0010
,  // measure 17
0100
0010
0001
0100
0001
0100
1000
0010
,  // measure 18
0001
0100
0010
0001
0100
0001
0100
0010
,  // measure 19
1000
0100
0001
0100
0000
0001
0100
0001
0100
0000
0000
0000
0000
0000
0010
0000
,  // measure 20
0001
0100
0001
0100
1000
0100
0001
0100
,  // measure 21
0010
0001
0100
0001
0100
0010
0001
1000
,  // measure 22
0001
0100
0010
0001
0100
0001
0100
0010
,  // measure 23
0100
0001
0100
1000
0000
0000
0010
0100
0001
0100
0000
0000
0010
0000
0100
0000
,  // measure 24
0100
0000
0000
0010
0000
0000
0001
0000
0000
1000
0000
0000
0000
0100
0000
0000
,  // measure 25
0010
0010
0001
0100
0000
0000
0001
0100
0001
0010
0000
0000
0100
0000
0001
0000
,  // measure 26
0100
0000
0000
0010
0000
0000
0001
0000
0000
0000
0100
0010
0000
0001
0000
0000
,  // measure 27
1000
0100
0001
0100
0000
0010
0100
0001
0010
0100
0000
0000
1000
0000
0001
0000
,  // measure 28
0000
0010
0100
0000
0000
0100
1000
0000
,  // measure 29
0100
0001
1000
0100
0001
0100
0010
0000
0100
0000
0010
0001
0100
0010
0100
0001
,  // measure 30
1000
0010
0100
0000
0010
0000
0000
0000
0000
0001
0100
0000
0010
0000
0100
0001
,  // measure 31
1000
0010
0100
0000
0100
0001
0010
0000
0010
0000
0001
0100
1000
0000
0001
0000
,  // measure 32
1001
0000
0000
0000
0000
0000
0000
0000
0000
0000
0000
0000
0000
0000
0000
0000
0100
0001
0000
0010
0000
0000
0100
0000
0010
0000
0000
0000
0010
0000
0000
0000
,  // measure 33
0100
0001
0000
0010
0000
0000
0010
0000
0001
0000
0000
0000
0010
0000
0000
0000
0100
0001
0000
0010
0000
0000
1000
0000
0100
0000
0000
0000
0010
0000
0000
0000
,  // measure 34
0100
0000
0000
0000
0010
0000
0000
0000
0000
0000
0000
0000
0000
0000
0000
0000
1000
0100
0000
0001
0000
0000
0010
0000
0100
0000
0000
0000
0010
0000
0000
0000
,  // measure 35
0100
0001
0000
0010
0000
0000
0100
0000
0001
0000
0000
0000
0010
0000
0000
0000
0000
0000
0000
0000
0000
0000
0000
0000
0100
0000
0001
0000
1000
0000
0001
0000
,  // measure 36
0020
0000
0000
0000
0030
0000
0100
0010
,  // measure 37
0000
0100
0001
0000
0100
0000
0010
0100
0001
0000
1000
0100
0001
0010
0000
0000
,  // measure 38
0020
0000
0000
0000
0030
0000
0001
0100
,  // measure 39
1000
0000
0100
0001
0010
0000
0010
0000
0200
0000
0000
0020
0000
0000
0330
0000
,  // measure 40
0010
0001
0100
0010
0001
0100
0001
0100
,  // measure 41
1000
0010
0100
0001
0100
0010
0001
0100
,  // measure 42
0001
0100
0010
0001
1000
0001
0100
0010
,  // measure 43
0100
0001
0100
0010
0000
0000
0100
0001
0010
1000
0000
0000
0200
0000
0300
0000
,  // measure 44
0010
0100
0001
1000
0001
0010
0100
0001
,  // measure 45
0100
0001
0010
0100
0001
1000
0001
0010
,  // measure 46
0100
0001
0100
0001
0010
0100
0001
1000
,  // measure 47
0001
0010
0100
0001
0000
0000
0010
0001
0100
1000
0010
0000
0100
0000
0001
0000
,  // measure 48
0100
0000
0010
0000
0001
0000
0100
0000
0010
0000
0001
0100
1000
0000
0010
0000
,  // measure 49
0100
0010
0001
0100
0001
0100
1000
0010
,  // measure 50
0001
0100
0010
0001
0100
0001
0100
0010
,  // measure 51
0001
0000
0000
1000
0000
0000
0001
0000
0000
0100
0000
0000
0000
0000
0000
0000
0000
0000
0001
0000
0000
0100
0000
0000
1000
0000
0000
0010
0000
0000
0000
0000
0000
0000
0000
0000
0100
0000
0000
0000
0001
0000
0000
0000
0010
0000
0000
0000
,  // measure 52
0100
0001
0100
1000
0010
0100
0001
1000
,  // measure 53
0001
0010
0100
0001
0010
0100
0001
1000
,  // measure 54
0001
0010
0100
0010
0001
0100
0001
0100
,  // measure 55
0010
0001
0100
1000
0000
0000
0010
0100
0001
1000
0001
0000
0010
0000
0100
0000
,  // measure 56
0200
0000
0000
0300
,  // measure 57
1000
0100
0001
0100
0000
0000
0100
0001
0100
0001
1000
0000
0010
0000
0001
0000
,  // measure 58
0200
0000
0000
0300
,  // measure 59
0010
0001
0100
0010
0000
0000
0001
0100
0001
0100
1000
0000
0000
0000
0000
0000
;
