#VERSION:0.83;
#TITLE:call it what you like;
#SUBTITLE:;
#ARTIST:Robbie Doherty;
#TITLETRANSLIT:;
#SUBTITLETRANSLIT:;
#ARTISTTRANSLIT:;
#GENRE:;
#ORIGIN:;
#CREDIT:;
#BANNER:;
#BACKGROUND:;
#PREVIEWVID:;
#JACKET:;
#CDIMAGE:;
#DISCIMAGE:;
#LYRICSPATH:;
#CDTITLE:;
#MUSIC:Call It What You Like.ogg;
#OFFSET:0.000000;
#SAMPLESTART:100.059883;
#SAMPLELENGTH:12.000000;
#SELECTABLE:YES;
#BPMS:0.000=134.000;
#STOPS:;
#DELAYS:;
#WARPS:;
#TIMESIGNATURES:0.000=4=4;
#TICKCOUNTS:0.000=4;
#COMBOS:0.000=1;
#SPEEDS:0.000=1.000=0.000=0;
#SCROLLS:0.000=1.000;
#FAKES:;
#LABELS:0.000=Song Start;
#BGCHANGES:;
#KEYSOUNDS:;
#ATTACKS:
;

//---------------dance-single - ----------------
#NOTEDATA:;
#CHARTNAME:;
#STEPSTYPE:dance-single;
#DESCRIPTION:;
#CHARTSTYLE:;
#DIFFICULTY:Hard;
#METER:12;
#RADARVALUES:0.459198,0.717717,0.162560,0.082813,0.302116,1048.000000,995.000000,53.000000,27.000000,0.000000,0.000000,0.000000,0.000000,0.000000,0.459198,0.717717,0.162560,0.082813,0.302116,1048.000000,995.000000,53.000000,27.000000,0.000000,0.000000,0.000000,0.000000,0.000000;
#CREDIT:;
#NOTES:
// measure 0
0000
0000
0000
0000
,  // measure 1
0000
0000
0000
0000
,  // measure 2
0000
0000
0000
0000
,  // measure 3
0000
0000
0000
0000
,  // measure 4
0101
0100
0001
0100
,  // measure 5
0001
0000
0000
0000
0100
0000
0000
0000
0100
0000
0000
0010
0000
0000
0100
0000
,  // measure 6
0010
0100
0001
0100
,  // measure 7
0001
0000
0000
0000
0100
0000
0000
0000
0010
0000
0000
0001
0000
0000
0100
0000
,  // measure 8
0001
0100
1000
0001
,  // measure 9
0010
0000
0000
0000
0100
0000
0000
0000
0001
0000
0000
0100
0000
0000
0010
0000
,  // measure 10
0001
0100
0010
0001
1000
0001
0100
0010
,  // measure 11
0100
0000
0010
0000
0100
0001
0010
0001
1000
0000
0000
0100
0000
0000
0001
0000
,  // measure 12
0100
0000
0010
0100
0001
1000
0100
0000
0010
0000
0100
0000
0001
0000
0010
0100
,  // measure 13
0001
0000
0010
0100
0001
1000
0001
0000
0010
0000
0000
0001
0000
0000
0100
0000
,  // measure 14
0010
0000
0001
0100
0001
1000
0100
0000
0010
0000
0100
0000
0001
0000
0010
0100
,  // measure 15
0001
0000
1000
0100
0001
0100
0001
0000
0010
0000
0000
0100
0000
0000
0001
0000
,  // measure 16
0010
0000
0100
0001
1000
0001
0010
0000
0100
0010
0000
0100
0001
0000
1000
0000
,  // measure 17
0100
0000
0010
0100
0001
1000
0001
0000
0010
0000
0000
0100
0000
0000
0001
0000
,  // measure 18
0100
0010
0100
0010
0001
1000
0001
0100
,  // measure 19
0000
0000
0000
0000
0000
0000
0000
0000
0010
0000
0000
0001
0000
0000
0100
0000
,  // measure 20
1001
1001
0000
0000
0000
0100
0000
0001
,  // measure 21
0100
0000
0000
0000
0000
0000
0000
0000
0010
0000
0001
0100
0000
0010
0100
0000
,  // measure 22
0001
0000
0000
0000
0000
0100
0001
0010
,  // measure 23
0100
0000
0000
0000
0000
0000
0000
0000
0010
0000
0000
0100
0000
0000
0001
0000
,  // measure 24
1000
0000
0000
0000
0000
0001
0000
0100
,  // measure 25
0000
0000
0000
0000
0000
0000
0000
0000
0100
0000
0000
0010
0000
0000
0100
0000
,  // measure 26
0001
0000
0000
0000
0000
0100
0001
0100
,  // measure 27
0100
0000
0010
0000
0001
0100
0001
1000
0100
0000
0100
0010
0000
0001
1000
0000
,  // measure 28
0010
0000
0000
0000
0000
0100
0001
0010
,  // measure 29
0100
0000
0000
0000
0000
0000
0000
0000
0010
0000
0000
0001
0000
0000
0100
0000
,  // measure 30
0100
0000
0000
0000
0000
0001
0100
1000
,  // measure 31
0000
0000
0000
0000
0000
0000
0000
0000
0010
0000
0000
0001
0000
0000
0100
0000
,  // measure 32
0010
0000
0000
0000
0000
0001
0100
1000
,  // measure 33
0010
0000
0000
0000
0000
0000
0000
0000
0100
0000
0010
0100
0000
0001
1000
0000
,  // measure 34
0100
0000
0000
0000
0000
0001
0000
0100
,  // measure 35
0000
0000
0000
0000
0000
0000
0000
0000
0100
0000
0010
0100
0000
0001
1000
0000
,  // measure 36
0101
0010
0100
0001
0010
0100
0010
0001
,  // measure 37
0100
0001
0100
0010
0001
1000
0001
0100
,  // measure 38
0100
0010
0100
0001
0100
0010
0001
0100
,  // measure 39
0001
0100
0010
0001
0100
0001
0100
0010
,  // measure 40
0001
0100
0001
0100
0010
0100
1000
0100
,  // measure 41
0010
0100
0010
0001
0100
0001
0100
0010
,  // measure 42
0001
0100
0001
0100
0010
0100
1000
0100
,  // measure 43
0010
0000
0100
0000
0001
0010
0100
0001
0010
0000
0001
0000
0100
0000
0001
0000
,  // measure 44
0100
0010
0001
1000
0001
0100
0010
0001
,  // measure 45
0100
0001
0100
0010
0001
0100
0001
0100
,  // measure 46
0010
0001
1000
0001
0100
0010
0001
0100
,  // measure 47
0001
0100
0010
0001
0100
0001
0100
0010
,  // measure 48
1001
0010
0100
0010
0100
0010
0100
1000
,  // measure 49
0100
0010
0001
0100
0001
0100
0010
0001
,  // measure 50
0100
0001
0100
0010
0001
1000
0001
0100
,  // measure 51
0010
0000
0001
0000
0100
0000
0001
0000
0100
0000
0010
0000
0001
0100
0010
0001
,  // measure 52
1000
0000
0000
0000
0000
0010
0000
0101
,  // measure 53
0000
0000
0000
0000
0000
0000
0000
0000
0100
0000
0000
0010
0000
0000
0001
0000
,  // measure 54
0110
0000
0000
0000
0000
0010
0000
0100
,  // measure 55
0000
0000
0000
0000
0000
0000
0000
0000
0010
0000
0000
0001
0000
0000
0100
0000
,  // measure 56
0110
0000
0000
0000
0000
0010
0000
1001
,  // measure 57
0000
0000
0000
0000
0000
0000
0000
0000
0010
0000
0000
0001
0000
0000
1000
0000
,  // measure 58
0110
0000
0000
0000
0000
0000
0000
0101
,  // measure 59
0000
0000
0000
0000
0000
0000
0000
0000
0010
0000
0000
0001
0000
0000
0100
0000
,  // measure 60
0011
0010
0100
0001
1000
0001
0010
0100
0001
0100
0001
0010
,  // measure 61
0100
0100
0010
0001
0100
0001
0100
0010
0001
0100
0001
0100
,  // measure 62
1000
0010
0100
0010
0100
0001
0100
0010
0001
1000
0001
0100
,  // measure 63
0010
0001
0100
0001
0100
0010
0001
0100
0001
0100
0010
0001
,  // measure 64
1001
0000
0000
0000
0000
0100
0000
0110
,  // measure 65
0000
0000
0000
0000
,  // measure 66
2002
3003
0220
0330
,  // measure 67
1001
0110
1001
0110
,  // measure 68
0100
0001
0100
0010
0001
0100
0010
0001
,  // measure 69
1000
0000
0001
0000
0100
0000
0010
0000
0001
0000
0100
0010
0001
0100
1000
0000
,  // measure 70
0100
0100
0001
0010
0100
1000
0010
0100
,  // measure 71
0001
0000
0100
0000
0001
0000
0100
0000
0010
0000
0001
0100
0001
1000
0100
0000
,  // measure 72
0100
0010
0100
0010
0100
0010
0100
0010
,  // measure 73
0001
0000
0100
0000
0001
0000
0100
0000
0010
0000
0001
0100
0001
1000
0100
0000
,  // measure 74
0010
0100
0010
0001
0100
0010
0001
1000
,  // measure 75
0001
0000
0100
0000
0010
1000
0100
0001
0010
0000
0000
0100
0000
0000
0001
0000
,  // measure 76
0110
0000
0000
0000
,  // measure 77
0100
0000
0000
0000
0000
0000
0000
0000
0010
0000
0000
0001
0000
0000
0010
0000
,  // measure 78
1001
0000
0000
0000
0000
0000
0000
0110
,  // measure 79
0000
0000
0000
0000
0000
0000
0000
0000
0001
0000
0000
0100
0000
0000
0010
0000
,  // measure 80
1001
0000
0000
0000
,  // measure 81
0110
0000
0000
0000
0000
0000
0000
0000
0010
0000
0000
0001
0000
0000
1000
0000
,  // measure 82
0110
0000
0000
0000
0000
0000
0000
0000
0000
0000
0000
0000
0000
0000
0100
0001
,  // measure 83
0010
0000
0010
0000
0001
0000
0100
0000
1000
0000
0010
0100
0001
0010
0100
0001
,  // measure 84
1000
0010
0100
0010
0001
0100
0010
0001
0100
0001
0100
0010
,  // measure 85
0001
0100
0001
0100
0010
0001
0100
0001
0100
0010
0001
1000
,  // measure 86
0100
0000
0000
0000
0000
0001
0100
0000
,  // measure 87
0000
0000
0000
0000
0000
0000
0000
0000
0010
0000
0100
0010
0000
0000
0001
0000
,  // measure 88
0010
0000
0000
0000
0000
0001
1000
0100
,  // measure 89
0000
0000
0000
0000
0000
0000
0000
0000
0100
0000
0000
0100
0000
0000
0100
0000
,  // measure 90
0010
0000
0000
0000
0000
0100
1000
0001
,  // measure 91
0010
0000
0100
0000
0001
1000
0100
0001
0100
0000
0010
0100
0000
0000
0001
0000
,  // measure 92
0010
0000
0000
0000
0000
0001
0100
1000
,  // measure 93
0000
0000
0000
0000
0000
0000
0000
0000
0010
0000
0000
0100
0000
0000
0001
0000
,  // measure 94
0010
0000
0000
0000
0000
0001
0100
1000
,  // measure 95
0000
0000
0000
0000
0000
0000
0000
0000
0100
0000
0000
0010
0000
0000
0001
0000
,  // measure 96
1000
0000
0000
0000
0000
0001
0100
1000
,  // measure 97
0000
0000
0000
0000
0000
0000
0000
0000
0010
0000
0000
0001
0000
0000
0100
0000
,  // measure 98
2002
3003
0220
0330
,  // measure 99
1001
0110
1001
0110
,  // measure 100
2002
0000
0000
0000
,  // measure 101
0000
3003
0200
0300
,  // measure 102
0001
1000
0000
0000
0000
0000
0000
0000
,  // measure 103
0000
0000
0000
0000
,  // measure 104
0100
0000
0000
0001
0000
0000
0010
0000
0000
0000
0000
0000
0000
0000
0000
0000
,  // measure 105
0000
0000
0000
0001
0000
0010
0000
0100
,  // measure 106
1000
0000
0100
0001
0000
0000
0010
0000
0000
0000
0000
0000
0000
0000
0000
0000
,  // measure 107
0000
0000
0000
0000
,  // measure 108
2002
0000
0000
3003
,  // measure 109
0200
0000
0020
0330
,  // measure 110
1000
0000
0100
0000
0000
0000
0000
0000
0000
0000
0000
0000
0000
0000
0010
0100
,  // measure 111
0002
0000
0000
0003
,  // measure 112
2002
0000
0000
3003
,  // measure 113
0200
0000
0000
0000
0300
0100
0000
0000
,  // measure 114
2002
3003
0220
0330
,  // measure 115
1001
0110
1001
0110
,  // measure 116
1001
0000
0000
0000
0000
0100
0001
0010
,  // measure 117
0100
0000
0000
0000
0000
0000
0000
0000
0010
0000
0000
0001
0000
0000
0100
0000
,  // measure 118
0000
0000
0000
0000
0000
0010
1000
0001
,  // measure 119
0000
0000
0000
0000
0000
0000
0000
0000
0010
0000
0000
0001
0000
0000
0100
0000
,  // measure 120
1000
0000
0000
0000
0000
0001
0100
1000
,  // measure 121
0000
0000
0000
0000
0000
0000
0000
0000
0010
0000
0000
0001
0000
0000
0100
0000
,  // measure 122
0010
0000
0000
0000
0000
0001
1000
0100
,  // measure 123
0000
0000
0000
0000
0000
0000
0000
0000
0010
0000
0000
0001
0000
0000
0100
0000
,  // measure 124
1000
0100
0001
1000
0001
0010
0100
0001
1000
0001
0010
0100
,  // measure 125
0010
0001
0100
0001
1000
0001
0010
0100
0001
0010
0100
0010
,  // measure 126
0001
0100
0001
0100
0010
0001
1000
0001
0100
0010
0001
0100
,  // measure 127
0001
0100
0010
0001
1000
0001
0100
0010
0001
0100
0001
0100
,  // measure 128
1001
0000
0000
0000
0000
0010
0100
0001
,  // measure 129
0000
0000
0000
0000
0000
0000
0000
0000
0100
0000
0000
0100
0000
0000
0100
0000
,  // measure 130
2002
3003
0220
0330
,  // measure 131
1001
0110
1001
0110
,  // measure 132
1001
0010
0100
0010
0001
0100
0001
0100
,  // measure 133
0010
0000
0100
0000
1000
0000
0100
0000
0010
0000
0100
0010
0001
0010
0100
0000
,  // measure 134
0010
0100
0001
0100
0010
0100
1000
0100
,  // measure 135
0010
0000
0100
0000
0001
0000
0100
0000
0010
0000
0001
0100
1000
0010
0001
0000
,  // measure 136
0100
0010
0001
0100
0001
0100
1000
0010
,  // measure 137
0100
0000
0010
0000
0100
0000
0010
0100
0001
0000
0100
0010
0001
0010
0100
0000
,  // measure 138
0010
0001
1000
0001
0100
0010
0100
0001
,  // measure 139
0100
0000
0010
0000
0001
0100
1000
0001
0100
0000
0000
0010
0000
0000
0100
0000
,  // measure 140
0100
0010
0100
0010
0001
0100
0001
0100
,  // measure 141
1000
0000
0001
0000
0100
0000
0010
0000
0001
0000
1000
0010
0001
0010
0100
0000
,  // measure 142
0010
0100
0001
0100
0010
0001
0100
0010
,  // measure 143
0001
0000
1000
0000
0001
0000
0100
0000
0010
0000
0001
0100
0001
1000
0100
0000
,  // measure 144
0100
0010
0100
0001
0100
0010
0001
0100
,  // measure 145
0001
0000
0100
0000
0010
0000
1000
0001
0100
0000
0010
0100
0001
1000
0001
0000
,  // measure 146
0100
0000
0010
0000
0001
0000
0100
0000
0001
0000
0100
0000
0010
0000
0001
0100
,  // measure 147
1000
0000
0001
0000
0100
0000
0010
0000
0100
0000
0010
0100
0000
0000
0001
0000
,  // measure 148
0110
0000
0010
0000
0100
0001
0100
0010
,  // measure 149
0100
0000
0000
0000
0001
0000
0000
0000
0100
0000
0000
0010
0000
0000
0100
0000
,  // measure 150
0001
0000
0100
0000
0010
0001
1000
0100
,  // measure 151
0001
0000
0000
0000
0100
0000
0000
0000
0010
0000
0000
0001
0000
0000
0100
0000
,  // measure 152
0010
0000
0100
0000
0001
0100
0001
0100
,  // measure 153
1000
0000
0010
0000
0001
0000
0100
0000
0010
0000
0100
0001
0000
0010
0100
0001
,  // measure 154
1000
0000
0001
0000
0010
0001
1000
0001
,  // measure 155
0100
0000
0010
0000
0001
0100
0001
1000
0100
0000
0000
0010
0000
0000
0100
0000
,  // measure 156
0100
0000
0010
0000
0001
0100
0001
0100
,  // measure 157
1000
0000
0000
0000
0100
0000
0000
0000
0010
0000
0100
0001
0000
0010
0100
0000
,  // measure 158
0100
0000
0010
0000
0100
0001
1000
0100
,  // measure 159
0001
0000
0000
0000
0100
0000
0000
0000
0010
0000
0001
0100
0000
0010
0100
0000
,  // measure 160
0001
0000
0010
0000
0001
0100
0001
0100
,  // measure 161
1000
0000
0000
0000
0010
0000
0000
0000
0100
0000
0010
0100
0000
0001
1000
0000
,  // measure 162
0010
0000
0000
0000
0000
0001
0000
0100
,  // measure 163
0000
0000
0000
0000
0000
0000
0000
0000
0100
0000
0010
0001
0000
0010
0100
0000
,  // measure 164
1001
0001
0100
0001
,  // measure 165
0100
1000
1000
0100
,  // measure 166
0010
0001
0100
0001
,  // measure 167
0100
0010
0001
0100
,  // measure 168
0001
0100
0010
0001
,  // measure 169
1000
0001
0100
0010
,  // measure 170
0001
0100
0001
0100
,  // measure 171
0010
0000
0000
0000
0001
0100
0001
1000
0100
0000
0000
0000
0100
0000
0000
0000
,  // measure 172
0100
0010
0000
0100
,  // measure 173
0000
1000
0000
0001
,  // measure 174
0000
0010
0000
0100
,  // measure 175
0000
0001
0000
0100
,  // measure 176
0000
0010
0000
0001
,  // measure 177
0000
0100
0000
1000
,  // measure 178
0000
0001
0000
0100
,  // measure 179
0000
0010
0000
0100
,  // measure 180
0101
0000
0000
0000
;
