#TITLE:but i need it;
#SUBTITLE:;
#ARTIST:FromClay, Arlo, & Emi Grace;
#TITLETRANSLIT:;
#SUBTITLETRANSLIT:;
#ARTISTTRANSLIT:;
#GENRE:;
#CREDIT:;
#BANNER:;
#BACKGROUND:;
#LYRICSPATH:;
#CDTITLE:;
#MUSIC:But I Need It (feat. Emi Grace).ogg;
#OFFSET:0.000000;
#SAMPLESTART:100.059883;
#SAMPLELENGTH:12.000000;
#SELECTABLE:YES;
#BPMS:0.000000=133.000000
,296.000000=33.250000
,298.000000=133.000000
;
#STOPS:0.000000=0.900000,
312.000000=0.900000
;
#BGCHANGES:;
#KEYSOUNDS:;
#ATTACKS:;

//---------------dance-single - ----------------
#NOTES:
     dance-single:
     :
     Hard:
     13:
     0.520307,0.593791,0.013709,0.105106,0.333597,797.000000,794.000000,3.000000,23.000000,0.000000,0.000000,0.520307,0.593791,0.013709,0.105106,0.333597,797.000000,794.000000,3.000000,23.000000,0.000000,0.000000:
// measure 0
0000
0000
0000
0000
,  // measure 1
0000
0000
0000
0000
,  // measure 2
0000
0000
0000
0000
,  // measure 3
0000
0000
0000
0000
,  // measure 4
0100
0000
0010
0000
0001
0000
0100
0000
0001
0100
0000
0010
0000
0001
0000
0000
,  // measure 5
1000
0000
0100
0000
0010
0000
0001
0000
0100
0010
0000
0010
0000
0100
0000
0000
,  // measure 6
0100
0000
0010
0000
0001
0000
0100
0000
0001
0100
0000
0010
0000
0010
0000
0000
,  // measure 7
0100
0000
0001
0000
0100
0000
1000
0000
0001
0000
0100
0010
0001
0000
0100
0000
,  // measure 8
1000
0100
0010
0001
1000
0001
0100
0000
,  // measure 9
0001
0000
0100
0000
1000
0000
0001
0000
0100
0010
0000
0001
0000
0100
0000
0000
,  // measure 10
0001
0100
0010
0001
1000
0001
0100
0000
,  // measure 11
0001
0000
0100
0000
0010
0000
1000
0100
0001
0000
0000
0000
0001
0000
0010
0000
,  // measure 12
0100
0100
0010
0100
0001
0100
1000
0000
,  // measure 13
0010
0001
0100
0010
1000
0100
0001
0010
,  // measure 14
0010
0100
0010
0100
0001
0100
1000
0000
,  // measure 15
0100
0010
0001
1000
0001
0100
0010
0000
,  // measure 16
0100
0010
0001
0100
0001
1000
0100
0000
,  // measure 17
0100
0010
0001
0100
0001
0100
1000
0000
,  // measure 18
0100
0010
0001
0100
0001
0100
1000
0000
,  // measure 19
0100
0010
0001
1000
0001
0100
0010
0000
,  // measure 20
0100
0000
0010
0001
0100
0000
0001
0000
0100
0000
0010
0001
0100
0000
0010
0000
,  // measure 21
0010
0000
0001
0100
0010
0000
1000
0000
0001
0000
0100
0010
0001
0000
0100
0000
,  // measure 22
1000
0001
0100
0010
0001
0000
0100
0000
,  // measure 23
0010
0000
0100
0000
0100
0001
1000
0001
,  // measure 24
0010
0000
0100
0000
1000
0000
0001
0000
0100
0000
0010
0000
1000
0100
0000
0001
,  // measure 25
0000
0000
0010
0000
0001
0000
1000
0000
0001
0000
0100
0000
0010
0001
0000
0100
,  // measure 26
0000
0000
0100
0000
0001
0000
0010
0000
0100
0000
0010
0000
1000
0100
0000
0001
,  // measure 27
0000
0000
0010
0000
0100
0000
0001
0000
0100
0000
0010
0001
1000
0100
0001
0000
,  // measure 28
0010
0000
0100
0000
0001
0000
0010
0000
0100
0000
0010
0000
1000
0100
0000
0001
,  // measure 29
0000
0000
0010
0000
0001
0000
1000
0000
0001
0000
0100
0000
0010
0001
0000
0100
,  // measure 30
0000
0000
0100
0000
0010
0000
0001
0000
0100
0000
0010
0000
0100
1000
0000
0001
,  // measure 31
0010
0000
0100
0000
0010
0000
0100
0000
0010
0001
0100
0000
0010
0000
0000
0000
,  // measure 32
0101
0000
0010
0100
0001
0100
1000
0100
,  // measure 33
0100
0000
0010
0000
0100
0000
0001
0000
0100
0000
0010
0000
1000
0100
0000
0001
,  // measure 34
0000
0000
0001
0000
1000
0000
0001
0000
0100
0000
0010
0000
0100
0001
0000
0010
,  // measure 35
0000
0000
0010
0000
0100
0000
0001
0000
0100
0000
0010
0100
0001
1000
0100
0000
,  // measure 36
0010
0000
0100
0000
0001
0000
1000
0000
0001
0000
0010
0000
0100
0001
0000
0010
,  // measure 37
0000
0000
0100
0000
0001
0000
1000
0000
0100
0000
0001
0000
0010
0100
0000
0001
,  // measure 38
0000
0000
0010
0000
0001
0000
1000
0000
0001
0000
0100
0000
0010
0001
0000
0100
,  // measure 39
0010
0000
0001
0000
0100
0000
0010
0000
1000
0000
0100
0001
0010
0100
0001
0000
,  // measure 40
0100
0000
0010
0001
1000
0001
0100
0000
,  // measure 41
0010
0000
0100
0000
0001
0000
0100
0000
1000
0000
0010
0000
0100
0010
0000
0001
,  // measure 42
0000
0000
0010
0000
0100
0000
0001
0000
0100
0000
0010
0000
1000
0100
0000
0001
,  // measure 43
0000
0000
0100
0000
0010
0000
0001
0000
0100
0000
0010
0000
1000
0100
0000
0001
,  // measure 44
1000
0010
0100
0010
0001
0100
1000
0000
,  // measure 45
0010
0000
0001
0000
1000
0000
0001
0000
0100
0000
0010
0000
1000
0100
0000
0001
,  // measure 46
0000
0100
0010
0001
1000
0001
0100
0000
,  // measure 47
0010
0001
0010
0001
0100
0000
1000
0000
,  // measure 48
0010
0001
0100
0001
1000
0000
0100
0000
,  // measure 49
0001
0100
0020
0030
,  // measure 50
0001
1000
0001
0100
0010
0000
0001
0000
,  // measure 51
0100
0001
0200
0000
,  // measure 52
0002
0000
0000
0303
,  // measure 53
0020
0000
0000
0000
,  // measure 54
0200
0000
0000
0330
,  // measure 55
0022
0000
0000
0033
,  // measure 56
0010
0001
1000
0001
0100
0000
0010
0000
,  // measure 57
0001
0100
2000
3000
,  // measure 58
0010
0001
1000
0001
0100
0000
0010
0000
,  // measure 59
0001
0100
2000
0000
,  // measure 60
0002
0000
0000
3003
,  // measure 61
0200
0000
0000
0000
,  // measure 62
0020
0000
0000
0330
,  // measure 63
0220
0000
0000
0000
0000
0000
0330
0001
,  // measure 64
0020
0000
0000
0000
0000
0000
0030
0100
,  // measure 65
0002
0000
0000
0000
0000
0000
0003
1000
,  // measure 66
0200
0000
0000
0000
0000
0000
0300
0010
,  // measure 67
0002
0000
0000
0000
0000
0000
0003
1000
,  // measure 68
0200
0000
0300
0001
0020
0000
0030
0001
,  // measure 69
0200
0000
0300
0001
2000
0000
3000
0100
,  // measure 70
0010
0100
0001
1000
,  // measure 71
0100
0000
0010
0000
0100
0000
0010
0000
1000
0001
1000
0001
1000
0001
1000
0001
,  // measure 72
2000
0000
0000
0000
,  // measure 73
0000
0000
0000
0000
,  // measure 74
0000
0000
0000
0000
3000
0000
0000
0000
1000
0000
0100
0000
0000
0001
0000
0000
,  // measure 75
0010
0000
0100
0000
0000
0001
0000
0000
0010
0000
0100
0000
0000
0010
0000
0000
,  // measure 76
0100
0000
0010
0000
0000
0100
0000
0000
0001
0000
0100
0000
0000
1000
0000
0000
,  // measure 77
0010
0000
0001
0000
0000
0100
0000
0000
0100
0000
0001
0000
1000
0000
0001
0000
,  // measure 78
0000
0000
0000
0000
1000
0000
0100
0000
0001
0000
0100
0000
0001
0010
0000
0100
,  // measure 79
0000
0000
0100
0000
0010
0000
0001
0000
1000
0000
0001
0000
0100
0010
0000
0100
,  // measure 80
0000
0000
0001
0000
1000
0000
0001
0000
0100
0000
0010
0000
1000
0100
0000
0001
,  // measure 81
0000
0000
0001
0000
1000
0000
0001
0000
0100
0000
0010
0001
1000
0100
0001
0000
,  // measure 82
0010
0000
0000
0000
1000
0000
0001
0000
0100
0000
0010
0000
1000
0100
0000
0001
,  // measure 83
0000
0000
0010
0000
0100
0000
0001
0000
1000
0000
0001
0000
0010
0100
0000
0001
,  // measure 84
0000
0000
0010
0000
0001
0000
1000
0000
0001
0000
0100
0000
0010
0001
0000
0100
,  // measure 85
0000
0100
0010
0001
0100
0001
1000
0100
,  // measure 86
0001
1000
0001
0100
0010
0000
0100
0000
,  // measure 87
0001
0000
0000
0000
0100
0000
0000
0000
0010
0000
0000
0100
0000
0000
0001
0000
,  // measure 88
0010
0100
0001
0100
1000
0000
0001
0000
,  // measure 89
0100
0000
0010
0000
0010
0001
0100
0001
,  // measure 90
0010
0000
0001
0000
1000
0000
0001
0000
0100
0000
0010
0000
1000
0100
0000
0001
,  // measure 91
0010
0000
0010
0000
0001
0000
1000
0000
0001
0000
0100
0000
0010
0100
0000
0001
,  // measure 92
0100
0000
0100
0000
0010
0000
0001
0000
0100
0000
0010
0000
1000
0100
0000
0001
,  // measure 93
0010
0000
0001
0100
1000
0010
0001
0000
0100
0000
0010
0001
1000
0100
0001
0000
,  // measure 94
0010
0000
0001
0000
1000
0000
0001
0000
0100
0000
0010
0000
1000
0100
0000
0001
,  // measure 95
0100
0000
0010
0000
1000
0000
0001
0000
0100
0000
0010
0000
1000
0100
0000
0001
,  // measure 96
0010
0000
0010
0000
0100
0000
0010
0000
0100
0000
0010
0000
1000
0100
0000
0001
,  // measure 97
0010
0100
0010
0100
0001
0100
1000
0010
,  // measure 98
0100
0000
0010
0000
0100
0000
0001
0000
0100
0000
0010
0000
1000
0100
0000
0001
,  // measure 99
0100
0000
0010
0000
0001
0000
0100
0000
0010
0000
1000
0000
0100
0001
0000
0010
,  // measure 100
0100
0000
0001
0000
0100
0000
0001
0000
0100
0000
0010
0000
1000
0100
0000
0001
,  // measure 101
0010
0000
0100
0001
1000
0001
0010
0000
0100
0000
0001
1000
0001
0010
0100
0000
,  // measure 102
0010
0000
0001
0000
1000
0000
0001
0000
0100
0000
0010
0000
1000
0100
0000
0001
,  // measure 103
1000
0000
0010
0000
0100
0000
0001
0000
0100
0000
0010
0000
1000
0100
0000
0001
,  // measure 104
0010
0000
0010
0000
0100
0000
0001
0000
0100
0000
0010
0000
1000
0100
0000
0001
,  // measure 105
0010
0000
0100
0001
1000
0001
0010
0000
0100
0000
0001
1000
0100
0001
0010
0000
,  // measure 106
0010
0000
0001
0000
1000
0000
0001
0000
0100
0000
0010
0000
0100
0001
0000
0010
,  // measure 107
0100
0000
0001
0000
0100
0000
0010
0000
1000
0000
0010
0000
0100
0001
0000
0010
,  // measure 108
0100
0000
0100
0000
0010
0000
0001
0000
0100
0000
0010
0000
1000
0100
0000
0001
,  // measure 109
0010
0000
0010
0001
0100
0010
0001
0000
0100
0000
0010
0001
1000
0001
0100
0000
,  // measure 110
0010
0000
0001
0000
0100
0000
0001
0000
0100
0000
0010
0000
1000
0100
0000
0001
,  // measure 111
0000
0000
0001
0000
1000
0000
0001
0000
0100
0000
0010
0000
0100
0001
0000
0010
,  // measure 112
0010
0000
0001
0000
0100
0000
0010
0000
1000
0000
0001
0000
0100
0001
0000
0010
,  // measure 113
0000
0000
0010
0001
1000
0001
0100
0000
0010
0000
0001
0100
1000
0001
0100
0000
,  // measure 114
0010
0000
0001
0000
1000
0000
0001
0000
0100
0000
0010
0000
1000
0100
0000
0001
,  // measure 115
0000
0000
0001
0000
1000
0000
0001
0000
0100
0000
0010
0000
1000
0100
0000
0001
,  // measure 116
0000
0000
0010
0000
1000
0000
0001
0000
0100
0000
0010
0000
0100
0001
0000
0010
,  // measure 117
0000
0000
0010
0100
0001
1000
0001
0000
0000
0000
0000
0000
0100
0001
0000
0010
,  // measure 118
0000
0100
0000
0000
0000
0000
0000
0000
;
