#TITLE:bubblegum trash;
#SUBTITLE:;
#ARTIST:Starjunk.95;
#TITLETRANSLIT:;
#SUBTITLETRANSLIT:;
#ARTISTTRANSLIT:;
#GENRE:;
#CREDIT:;
#BANNER:;
#BACKGROUND:;
#LYRICSPATH:;
#CDTITLE:;
#MUSIC:Bubblegum Trash.ogg;
#OFFSET:0.000000;
#SAMPLESTART:100.059883;
#SAMPLELENGTH:12.000000;
#SELECTABLE:YES;
#BPMS:0.000000=180.000000
;
#STOPS:
;
#BGCHANGES:;
#KEYSOUNDS:;
#ATTACKS:;

//---------------dance-single - ----------------
#NOTES:
     dance-single:
     :
     Hard:
     15:
     0.892138,1.225412,0.266402,0.192057,0.288086,1008.000000,965.000000,43.000000,31.000000,0.000000,0.000000,0.892138,1.225412,0.266402,0.192057,0.288086,1008.000000,965.000000,43.000000,31.000000,0.000000,0.000000:
// measure 0
0000
0000
0000
0000
,  // measure 1
0000
0000
0000
0000
,  // measure 2
0000
0000
0000
0000
,  // measure 3
0000
0000
0000
0000
,  // measure 4
0010
0000
0000
0100
0000
0000
0000
0000
,  // measure 5
0010
0000
0000
0000
,  // measure 6
0100
0000
0000
0100
0000
0000
0000
0000
,  // measure 7
0010
0000
0000
0000
0010
0001
0100
0010
,  // measure 8
0100
0010
0001
0100
0010
0100
0001
0100
,  // measure 9
1000
0010
0100
0010
0100
0010
0100
1000
,  // measure 10
0100
0010
0100
0010
0001
0100
0001
0100
,  // measure 11
0010
0001
0100
0100
0010
1000
0100
0010
,  // measure 12
0100
0010
0100
0010
1000
0010
0100
0001
,  // measure 13
0100
0010
0100
0001
0100
0010
0001
0100
,  // measure 14
0010
0001
1000
0001
0100
0010
1000
0001
0010
0100
0010
0001
0100
0001
0010
0001
,  // measure 15
0100
0010
0100
0000
0001
1000
0100
0000
,  // measure 16
0010
0001
0100
0010
0001
0100
0001
0100
,  // measure 17
1000
0100
0010
0100
0010
0100
0001
0100
,  // measure 18
1000
0100
0010
0100
0010
0001
0100
0010
,  // measure 19
0001
0100
0001
0100
0010
0001
0100
1000
,  // measure 20
0100
0010
0100
0010
0100
0100
0010
0100
,  // measure 21
0010
0100
0001
0100
0010
0001
0100
1000
,  // measure 22
0001
0000
0100
0010
0001
0000
0100
0000
0010
0000
0001
0000
0100
0000
0001
0000
,  // measure 23
0100
0010
0100
0010
0001
0100
0001
0100
,  // measure 24
1000
0010
0100
0010
0001
1000
0001
0100
,  // measure 25
0010
0001
0100
0001
0100
0010
0001
1000
,  // measure 26
0001
0100
0010
0001
0100
0001
0100
0010
,  // measure 27
0001
0100
0001
0100
0010
0100
1000
0100
,  // measure 28
0010
0100
0010
0001
0100
0001
0100
0010
,  // measure 29
0001
1000
0001
0100
0010
0001
0100
0010
,  // measure 30
0100
0010
0100
0000
0001
1000
0100
0000
0001
0010
0100
0000
0001
0100
0001
0000
,  // measure 31
1000
0000
0100
0000
0010
0000
0100
0000
0010
0001
0100
0010
0001
1000
0001
0100
,  // measure 32
1000
0100
0011
0001
0110
0001
0110
0101
,  // measure 33
0011
0100
0011
0001
0110
0110
0011
0110
,  // measure 34
1000
0100
0110
0010
0110
0010
0101
0101
,  // measure 35
1001
0010
0101
0110
0110
0101
0101
1010
,  // measure 36
0110
0000
0010
0000
0100
0010
0100
0001
1000
0000
0001
0000
0010
0000
0100
0000
,  // measure 37
1000
0000
0100
0000
0010
0000
0100
0000
0010
0000
0100
0010
0001
0000
0100
0000
,  // measure 38
0010
0000
0100
0000
0001
1000
0100
0000
0001
0000
0010
0000
0100
0000
0001
0000
,  // measure 39
0010
0100
0010
0001
0100
0010
0001
0100
,  // measure 40
1000
0100
0110
0001
0110
0010
0011
0101
,  // measure 41
1001
0001
0110
0001
1001
0110
0101
0101
,  // measure 42
0001
0000
0100
0000
0001
0010
0100
0001
0010
0000
0010
0000
0100
0000
0010
0000
,  // measure 43
0001
0000
1000
0000
0001
0000
0100
0000
0010
0001
0100
0010
0001
0000
0100
0000
,  // measure 44
1000
0100
0010
0001
0100
0100
0010
0100
,  // measure 45
0010
0001
0100
0001
0100
0010
0001
0100
,  // measure 46
1000
0100
0001
0010
0100
0001
1000
0001
,  // measure 47
0010
0000
0100
0000
0010
0100
0001
0100
0010
0001
0100
0001
0100
0010
1000
0100
,  // measure 48
0001
0010
0100
0001
0010
0000
0100
0000
0011
0000
0100
0000
0011
0000
1001
0000
,  // measure 49
1001
0100
0011
0001
0101
0011
0101
0011
,  // measure 50
1001
0100
0010
0100
1000
0100
0100
0010
,  // measure 51
0100
0010
0100
0010
0100
0010
0001
0100
,  // measure 52
1000
0100
0010
0100
0010
0001
0100
0001
,  // measure 53
0100
0000
0010
0000
0001
0000
0100
0000
0010
0001
1000
0001
0100
0000
0010
0000
,  // measure 54
1000
0010
0100
0010
0001
0100
0001
0100
,  // measure 55
0010
0001
0100
0001
0100
0010
0001
0100
,  // measure 56
1000
0100
0010
0001
0100
0010
0001
0100
,  // measure 57
0010
0001
0100
0001
0100
0010
0001
0100
,  // measure 58
1000
0100
0010
0001
0100
0010
0001
0100
,  // measure 59
0010
0001
0100
0001
0100
0010
0001
0100
,  // measure 60
1000
0100
0010
0100
0010
0100
1000
0100
,  // measure 61
0010
0100
0010
0001
1000
0001
0100
0010
,  // measure 62
0001
0100
0010
0000
0001
0100
0010
0000
0001
0100
0010
0000
1000
0100
0001
0000
,  // measure 63
0100
0010
0100
0010
0001
0100
0001
0100
,  // measure 64
1000
0000
0010
0100
0000
0000
0100
0000
,  // measure 65
0010
0001
0000
0100
,  // measure 66
0010
0000
0100
0001
0000
0000
0000
0000
,  // measure 67
0100
0000
0010
0000
0100
0001
1000
0001
,  // measure 68
0010
0100
0001
0000
0100
0000
1000
0100
0001
0000
0000
0000
0010
0000
0000
0000
,  // measure 69
0100
0001
0010
0000
0100
0000
0000
0000
0000
0000
0000
0000
0010
0000
0000
0000
,  // measure 70
0100
0001
1000
0000
0100
0000
0001
0010
0100
0000
0000
0000
0010
0000
0000
0000
,  // measure 71
0100
0010
0200
0000
0010
0000
0000
0000
0000
0000
0000
0000
0310
0000
0000
0000
,  // measure 72
0100
0010
1000
0100
0010
0100
0010
0100
,  // measure 73
0010
0001
0010
0100
1000
0100
0010
0001
,  // measure 74
0100
0001
0100
0010
0001
0100
0001
0100
,  // measure 75
0010
0100
1000
0100
0010
0100
0001
0100
,  // measure 76
0010
0001
0100
0010
0001
0100
1000
0100
0010
0001
0100
0001
0100
0010
0001
0100
,  // measure 77
0001
0100
0010
0001
1000
0001
0100
0010
0001
0100
0001
0100
0010
0001
1000
0001
,  // measure 78
0100
0010
0001
0100
0001
0100
0010
0001
1000
0001
0100
0010
0001
0100
0001
0100
,  // measure 79
1000
0100
0010
0001
1000
0001
0100
0010
0100
0001
0010
0100
0001
0000
0010
0000
,  // measure 80
0100
0000
0010
0000
0100
0001
1000
0000
,  // measure 81
0001
0000
0010
0001
0100
0010
0001
0100
,  // measure 82
0001
0010
0100
0100
1000
0010
0100
0010
,  // measure 83
0100
0001
0100
0010
0001
0100
0001
0100
,  // measure 84
2000
3100
0002
0013
0200
0310
0200
0310
,  // measure 85
0002
0013
0200
1300
0020
0130
0002
0013
,  // measure 86
0200
0310
0200
0310
0002
0013
0200
0310
,  // measure 87
0002
0013
0200
1300
0002
0013
0200
0310
,  // measure 88
0010
0100
0001
1000
0001
0010
0100
0001
,  // measure 89
0100
0001
0010
0100
0001
1000
0001
0010
,  // measure 90
0001
0100
0001
0100
0010
0001
1000
0001
,  // measure 91
0100
0000
0010
0000
0100
0010
0001
0100
1000
0100
0010
0100
0001
0000
1000
0000
,  // measure 92
0200
0310
0002
0013
0200
0310
0002
1003
,  // measure 93
0200
0310
0200
0310
0002
0103
0020
0130
,  // measure 94
0200
0310
0002
0103
0020
0031
2000
3100
,  // measure 95
0020
0000
0031
0000
0200
0000
0310
0000
0100
0001
0100
0000
0010
0000
0100
0000
,  // measure 96
1100
0100
0010
1000
0100
0010
0100
0010
,  // measure 97
0001
0100
0001
0100
0010
0001
1000
0100
,  // measure 98
0100
0010
0001
0100
0010
0001
0100
0010
,  // measure 99
0001
0000
1000
0000
0001
0000
0100
0000
0010
0001
0100
0000
0001
0000
0100
0000
,  // measure 100
1000
0001
0001
0010
0100
0010
0001
0100
,  // measure 101
0001
0000
0100
0000
0010
0000
0001
1000
0100
0010
0100
0000
0001
0000
1000
0000
,  // measure 102
0100
0001
0100
0010
0001
1000
0001
0100
,  // measure 103
0010
0000
0001
0000
0100
0000
0001
0000
0100
0000
0010
0000
0100
0010
0001
0100
,  // measure 104
1000
0100
0010
0100
0010
0100
0001
0100
,  // measure 105
1000
0010
1000
0100
0010
0100
0010
0100
,  // measure 106
0100
1000
0100
0010
0100
0010
0100
1000
,  // measure 107
0100
0010
0100
0010
1000
0100
0010
0100
,  // measure 108
0010
0100
1000
0100
0010
0100
0010
0100
,  // measure 109
0010
1000
0100
0010
0100
0001
0100
0010
,  // measure 110
1000
0100
0001
0000
0010
0100
0001
0000
0010
0100
0001
0000
1000
0100
0001
0000
,  // measure 111
0100
0100
0010
0100
0010
0100
0001
0100
,  // measure 112
1000
0100
0010
0100
0010
1000
0100
0010
,  // measure 113
0100
1000
0100
0010
0100
0010
0100
1000
,  // measure 114
0100
0010
0100
0001
0100
0010
0001
1000
,  // measure 115
0001
0100
0010
0100
0001
0100
0010
0001
,  // measure 116
1000
0001
0100
0010
0001
0100
0001
0100
,  // measure 117
0010
0100
0010
0100
1000
0100
0010
0100
,  // measure 118
0010
0001
0100
0000
0010
0001
0100
0000
1000
0001
0100
0000
0010
0001
0100
0000
,  // measure 119
0010
0001
0100
0010
0001
1000
0001
0100
;
