#VERSION:0.83;
#TITLE:bubble;
#SUBTITLE:;
#ARTIST:Yorushika;
#TITLETRANSLIT:;
#SUBTITLETRANSLIT:;
#ARTISTTRANSLIT:;
#GENRE:;
#ORIGIN:;
#CREDIT:;
#BANNER:;
#BACKGROUND:;
#PREVIEWVID:;
#JACKET:;
#CDIMAGE:;
#DISCIMAGE:;
#LYRICSPATH:;
#CDTITLE:;
#MUSIC:bubble.ogg;
#OFFSET:0.000000;
#SAMPLESTART:0.059886;
#SAMPLELENGTH:12.000000;
#SELECTABLE:YES;
#BPMS:0.000=164.000;
#STOPS:0.000=0.600;
#DELAYS:;
#WARPS:;
#TIMESIGNATURES:0.000=4=4;
#TICKCOUNTS:0.000=4;
#COMBOS:0.000=1;
#SPEEDS:0.000=1.000=0.000=0;
#SCROLLS:0.000=1.000;
#FAKES:;
#LABELS:0.000=Song Start;
#BGCHANGES:0.000=bubble.mp4=1.000=0=0=1=====,
99999=-nosongbg-=1.000=0=0=0 // don't automatically add -songbackground-
;
#KEYSOUNDS:;
#ATTACKS:
;

//---------------dance-single - ----------------
#NOTEDATA:;
#CHARTNAME:;
#STEPSTYPE:dance-single;
#DESCRIPTION:;
#CHARTSTYLE:;
#DIFFICULTY:Hard;
#METER:12;
#RADARVALUES:0.496995,0.839667,0.315108,0.119230,0.044711,817.000000,743.000000,74.000000,28.000000,0.000000,0.000000,0.000000,0.000000,0.000000,0.496995,0.839667,0.315108,0.119230,0.044711,817.000000,743.000000,74.000000,28.000000,0.000000,0.000000,0.000000,0.000000,0.000000;
#CREDIT:;
#NOTES:
// measure 0
0000
0000
0000
0000
,  // measure 1
0000
0000
0000
0000
,  // measure 2
0000
0000
0000
0000
,  // measure 3
0000
0000
0000
0000
,  // measure 4
0010
0001
0100
0010
0001
0100
0001
0100
,  // measure 5
0010
0001
0100
0010
0001
0100
0001
0100
,  // measure 6
1000
0001
0100
0010
0100
0001
0100
0001
,  // measure 7
0100
0010
0001
0100
0001
0100
0010
0000
,  // measure 8
1001
0000
0010
0000
0001
0000
0100
1000
,  // measure 9
0000
0100
0001
0010
0000
0100
0010
0000
,  // measure 10
0010
0001
0100
1000
0000
0001
0100
2000
,  // measure 11
0000
0000
0000
0000
0000
0000
3000
0001
,  // measure 12
1001
0000
0100
0000
0010
0000
0100
0001
,  // measure 13
0000
1000
0000
0100
0000
0010
0001
0100
,  // measure 14
0010
0200
0000
0000
0000
0000
0000
0000
,  // measure 15
0300
0100
0001
1000
0001
0010
0100
0001
,  // measure 16
0010
0100
0010
0001
1000
0000
0000
0000
,  // measure 17
0010
0100
0010
0001
0100
0001
0100
0010
,  // measure 18
0001
0100
0001
0100
1000
0100
0001
0100
,  // measure 19
0010
0000
0001
0100
1000
0000
0001
0000
,  // measure 20
0101
0000
0100
0000
0010
0000
0001
0100
,  // measure 21
0000
0001
0100
1000
0000
0001
0100
0000
,  // measure 22
0010
0000
0100
0010
0000
0001
0100
1000
,  // measure 23
0000
0000
0000
0000
0100
0001
0100
0001
,  // measure 24
0110
0000
0010
0000
0100
0010
0100
0000
,  // measure 25
0010
0100
0000
0001
0000
1000
0100
0001
,  // measure 26
0100
0010
0200
0000
0000
0000
0000
0000
,  // measure 27
0000
0000
0300
0000
0100
0001
0100
0001
,  // measure 28
0110
0000
0100
0011
0000
0000
0100
0011
,  // measure 29
0000
0000
0001
0101
0000
0010
0100
0001
,  // measure 30
0000
0000
0001
0110
0000
0000
0001
1001
,  // measure 31
1001
0000
0000
0000
0010
0100
0001
0100
,  // measure 32
0000
0000
0010
0101
0000
0000
0001
1001
,  // measure 33
0000
0000
0010
0110
0000
0001
0010
0200
,  // measure 34
0000
0000
0000
0000
0300
0100
0001
2000
,  // measure 35
0000
0000
0000
0000
,  // measure 36
3000
0101
0101
0110
,  // measure 37
0101
0000
1100
0000
0010
0100
0001
0010
,  // measure 38
0000
0010
0001
0100
0000
0010
0001
0100
,  // measure 39
0000
0001
0100
0000
0000
0100
0010
0100
,  // measure 40
0000
0000
0000
0000
0000
0001
1000
0100
,  // measure 41
0000
0000
0001
0100
0000
0000
0010
0002
,  // measure 42
0000
0000
0000
0000
0003
0000
0010
0100
,  // measure 43
0000
0000
0010
0100
0000
0000
0100
0010
,  // measure 44
0000
0110
0101
1100
,  // measure 45
0110
0000
0101
0000
0010
0001
0100
1000
,  // measure 46
0000
0010
0001
0100
0000
0001
1000
0100
,  // measure 47
0000
0000
0001
0000
0100
0000
0000
0000
0000
0000
0000
0001
0000
0010
0000
0000
,  // measure 48
0000
0000
0000
0000
0000
0001
0010
0100
,  // measure 49
0000
0000
0100
0001
0000
0000
0010
0100
,  // measure 50
0000
0000
0001
0010
0000
0000
0010
0002
,  // measure 51
0000
0000
0000
0000
,  // measure 52
0003
0010
0100
0001
0010
0000
0100
0002
,  // measure 53
0000
0000
0000
0000
,  // measure 54
0000
0000
0000
0000
,  // measure 55
0000
0000
0000
0000
,  // measure 56
0000
0000
0000
0003
,  // measure 57
0100
0001
1000
0001
0010
0100
0001
0010
,  // measure 58
0100
0000
0000
0001
0000
0000
0010
0000
0000
0001
0000
0000
0100
0000
0000
0010
0000
0000
0100
0000
0010
0000
0100
0000
,  // measure 59
0001
1000
0001
0010
0100
0001
1000
0001
0010
0100
0001
0100
,  // measure 60
0100
0010
0001
0100
0001
0100
0010
0001
0100
0001
1000
0100
,  // measure 61
0010
0000
0010
0000
0010
0000
0100
0001
,  // measure 62
0000
0001
0100
0010
0000
0100
1000
0000
,  // measure 63
0010
0100
0001
1000
0001
0010
0100
0020
,  // measure 64
0000
0000
0000
0030
,  // measure 65
0110
0000
0110
0000
0101
0000
0010
0110
,  // measure 66
0000
0101
0000
0110
0000
0001
0100
1000
,  // measure 67
0001
0020
0000
0000
0000
0000
0030
0000
,  // measure 68
0100
0010
0010
0001
0100
0001
1000
0100
,  // measure 69
0110
0000
0010
0000
0100
0000
0001
0100
,  // measure 70
0010
0100
0001
1000
0000
0010
0100
0000
,  // measure 71
0001
0100
1000
0000
0010
0100
0001
0020
,  // measure 72
0000
0000
0000
0030
,  // measure 73
1001
0000
0000
0000
0000
0100
0000
0001
,  // measure 74
0000
0001
1000
0100
0000
0001
0100
0010
,  // measure 75
0100
2000
0000
0000
0000
0000
0000
0000
,  // measure 76
0000
0000
0000
3000
0100
0001
0010
0100
,  // measure 77
0101
0000
0010
0101
0000
0000
0001
0011
,  // measure 78
0000
0000
1000
1001
0000
0010
0100
0001
,  // measure 79
0000
0010
0100
0001
0000
0000
1000
0110
,  // measure 80
0110
0000
0000
0000
0100
0001
1000
0001
,  // measure 81
0000
0000
0010
0110
0000
0000
1000
1001
,  // measure 82
0000
0000
0001
0101
0000
0001
1000
0100
,  // measure 83
0220
0000
0000
0000
0330
0100
0001
2000
,  // measure 84
0000
0000
0000
0000
,  // measure 85
3000
0101
0101
0110
,  // measure 86
0101
0000
0110
0000
0100
0001
0100
1000
,  // measure 87
0000
0010
0001
0100
0000
0001
1000
0100
,  // measure 88
0000
0000
0010
0101
0000
0101
0000
2200
,  // measure 89
0000
0000
0000
0000
3300
0001
0010
0100
,  // measure 90
0000
0000
0100
0010
0000
0000
0001
0200
,  // measure 91
0000
0000
0000
0000
0300
0000
0010
0100
,  // measure 92
0000
0000
0001
0010
0000
0000
1000
0100
,  // measure 93
0000
0101
0110
0101
,  // measure 94
0101
0000
1100
0000
0010
0100
0001
0100
,  // measure 95
0000
0100
0010
0001
0000
0001
1000
0100
,  // measure 96
0000
0000
0001
0100
0000
0000
0010
0020
,  // measure 97
0000
0000
0000
0000
0030
0100
0001
1000
,  // measure 98
0000
0000
0100
0010
0000
0000
0010
0001
,  // measure 99
0000
0000
1000
0100
0000
0000
0010
0200
,  // measure 100
0000
0000
0000
0000
0000
0000
0000
0300
,  // measure 101
0000
0100
0010
0001
0100
0001
0100
1000
,  // measure 102
0100
0010
0001
0100
0001
0100
0010
0001
,  // measure 103
1000
0001
0100
0010
0001
0100
0001
0100
,  // measure 104
0100
0010
0001
1000
0001
0100
0010
0001
,  // measure 105
0100
0001
0100
0010
0001
0100
0001
0100
,  // measure 106
1000
0010
0000
0100
0000
1000
0000
0001
,  // measure 107
0000
0100
0000
0010
0000
0100
0001
1000
,  // measure 108
0010
0001
0000
0100
0000
0010
0000
0001
,  // measure 109
0000
0100
0000
0010
0000
0001
0100
0000
,  // measure 110
0010
0001
0100
0001
0010
0100
1000
0001
,  // measure 111
0100
0000
0001
0000
0100
0000
0010
0001
,  // measure 112
0100
0000
0100
0000
0010
0000
0100
0001
,  // measure 113
2000
0000
0000
0000
3000
0100
0001
0010
,  // measure 114
0010
0001
0100
0001
0010
0010
0001
0100
,  // measure 115
0010
0010
0001
0100
1000
0000
0010
0001
,  // measure 116
0100
0010
0100
0001
1000
0000
0100
0001
,  // measure 117
0000
0000
0000
0000
,  // measure 118
0001
0010
0100
0010
0001
0100
0001
0100
,  // measure 119
1000
0100
0001
1000
0001
0001
0010
0010
,  // measure 120
0100
0010
0100
0010
0001
0100
0001
0100
,  // measure 121
1000
0010
0100
0010
0001
0100
0001
0100
,  // measure 122
1000
0010
0001
0100
0010
0001
0100
0001
,  // measure 123
0100
0010
0001
1000
0001
0100
0001
0100
,  // measure 124
0010
0001
1000
0001
0100
0010
0001
1000
,  // measure 125
0001
0100
0010
0001
0100
0001
0100
0010
,  // measure 126
2002
0000
0000
0000
,  // measure 127
0000
0000
0000
3003
,  // measure 128
0010
0110
0000
0001
1001
0000
0001
0101
,  // measure 129
0000
0100
0110
0000
0010
0110
0000
1000
,  // measure 130
1001
0010
0001
0100
0010
0001
1000
0001
,  // measure 131
0100
0010
0001
0100
0001
0100
0001
0100
,  // measure 132
1000
0001
0100
0010
0001
0100
0001
0100
,  // measure 133
0000
1001
0110
0101
,  // measure 134
0101
0000
0110
0000
0010
0001
0100
1000
,  // measure 135
0000
0010
0001
0100
0000
0001
1000
0100
,  // measure 136
0000
0000
0100
0001
0000
0000
0001
0100
,  // measure 137
0000
0000
0000
0000
0000
0001
0100
1000
,  // measure 138
0000
0000
0001
0100
0000
0000
0010
0002
,  // measure 139
0000
0000
0000
0000
0003
0000
0010
0100
,  // measure 140
0000
0000
0001
0010
0000
0000
0100
0010
,  // measure 141
0000
0110
0110
1001
,  // measure 142
0110
0000
0101
0000
0010
0100
0001
1000
,  // measure 143
0000
0010
0001
0100
0000
0001
1000
0100
,  // measure 144
0000
0000
0000
0000
0100
0000
0010
0000
0000
0000
0000
0000
0001
0000
0000
0200
,  // measure 145
0000
0000
0000
0000
0300
0010
0100
0001
,  // measure 146
0000
0000
0001
0100
0000
0000
0010
0100
,  // measure 147
0000
0000
0001
0100
0000
0000
0010
0200
,  // measure 148
0000
0000
0000
0000
0000
0000
0000
0300
,  // measure 149
0100
0010
0001
0100
0001
0100
0001
0100
,  // measure 150
2002
0000
0000
0000
,  // measure 151
0000
0000
0000
0000
,  // measure 152
0000
0000
0000
0000
,  // measure 153
0000
0000
0000
3003
,  // measure 154
1001
0001
0100
0001
0100
0010
0001
0100
,  // measure 155
0010
0001
0100
0001
0100
0010
0001
1000
,  // measure 156
0001
0100
0010
0001
1000
0001
0100
0010
,  // measure 157
0001
0100
0001
0100
0001
0010
0100
0000
;
