#TITLE:breathe;
#SUBTITLE:;
#ARTIST:Malcom Todd;
#TITLETRANSLIT:;
#SUBTITLETRANSLIT:;
#ARTISTTRANSLIT:;
#GENRE:;
#CREDIT:;
#BANNER:;
#BACKGROUND:;
#LYRICSPATH:;
#CDTITLE:;
#MUSIC:Malcolm Todd - Breathe (Official Video).ogg;
#OFFSET:0.000000;
#SAMPLESTART:100.059883;
#SAMPLELENGTH:12.000000;
#SELECTABLE:YES;
#BPMS:0.000000=110.000000
;
#STOPS:0.000000=0.550000
;
#BGCHANGES:0.000=Malcolm Todd - Breathe (Official Video).mp4=1.000=0=0=1=====,
99999=-nosongbg-=1.000=0=0=0 // don't automatically add -songbackground-
;
#KEYSOUNDS:;
#ATTACKS:;

//---------------dance-single - ----------------
#NOTES:
     dance-single:
     :
     Hard:
     11:
     0.385536,0.611364,0.028348,0.102054,0.280647,476.000000,471.000000,5.000000,18.000000,0.000000,0.000000,0.385536,0.611364,0.028348,0.102054,0.280647,476.000000,471.000000,5.000000,18.000000,0.000000,0.000000:
// measure 0
0000
0000
0000
0000
,  // measure 1
0000
0000
0000
0000
,  // measure 2
0000
0000
0000
0000
,  // measure 3
0000
0000
0000
0000
,  // measure 4
0010
0000
0000
0000
0000
0000
0000
0100
0001
0010
0000
0100
0000
0000
0000
0010
,  // measure 5
0100
0001
1000
0001
0010
0100
0001
1000
0001
0010
0100
0001
0010
0000
0100
0000
,  // measure 6
0001
0000
0000
0000
0000
0000
0100
0000
0010
0000
0100
0001
0000
0100
0001
0000
,  // measure 7
0010
0000
0001
0000
0100
0000
0010
0001
0100
0001
1000
0000
0100
0000
0000
0000
,  // measure 8
0020
0000
0030
0000
0010
0000
0010
0100
,  // measure 9
0002
0000
0000
0000
0000
0000
0000
0000
0003
0000
0100
0000
0000
0001
0000
0010
,  // measure 10
0000
0000
0000
0100
0000
0000
0010
0000
0100
0000
0000
0001
0000
0000
0010
0000
,  // measure 11
0000
0000
0000
0010
0001
0000
0100
0000
,  // measure 12
0200
0000
0300
0000
0010
0000
1000
0001
,  // measure 13
0200
0000
0000
0000
0000
0000
0000
0000
0300
0000
0001
0000
0000
0010
0000
0100
,  // measure 14
0000
0000
0010
0000
0001
0000
0100
0000
1000
0000
0000
0010
0000
0000
0100
0000
,  // measure 15
0200
0000
0300
0010
0001
0100
0001
0100
,  // measure 16
1000
0010
0000
0000
0100
0010
0000
0000
0001
0010
0000
0000
1000
0100
0000
0000
,  // measure 17
0100
0010
0000
0000
0001
0010
0000
0000
0010
0100
0000
0000
0001
0000
0100
0000
,  // measure 18
0000
0001
0000
0100
0010
0001
0100
2000
,  // measure 19
0000
3000
0100
0100
,  // measure 20
0010
0100
0000
0000
0001
1000
0000
0000
0100
0001
0000
0000
0010
0100
0000
0000
,  // measure 21
0001
0100
0000
0000
0001
0010
0000
0000
0010
0100
0000
0000
0001
0000
0100
0000
,  // measure 22
0000
0010
0000
0001
0100
0001
0100
1000
,  // measure 23
0010
0000
0000
0100
0001
0100
0001
0100
,  // measure 24
1000
0000
0000
0000
0000
0000
0010
0000
0001
0000
0010
0100
0000
0010
0100
0000
,  // measure 25
0001
0000
0100
0000
0010
0000
1000
0100
0001
0000
0001
0000
0010
0000
0001
0000
,  // measure 26
0100
0000
0000
0000
0000
0000
0000
0010
0100
0001
0000
0010
0000
0000
0000
0000
,  // measure 27
1000
0000
0100
0001
0010
0000
0000
0100
0000
0001
0000
1000
0000
0100
0001
0000
,  // measure 28
0010
0000
0000
0000
0000
0000
0000
0100
0001
0010
0000
0100
0000
0000
0000
0010
,  // measure 29
0100
0001
0010
0100
0010
0100
0010
0100
0010
0100
0001
0100
1000
0000
0100
0000
,  // measure 30
0001
0000
0000
0000
0000
0000
1000
0000
0100
0000
0001
0010
0000
0100
0001
0000
,  // measure 31
0001
0000
0100
0000
1000
0000
0000
0010
0100
0001
1000
0000
0100
0000
0000
0000
,  // measure 32
0020
0000
0030
0000
0100
0000
0001
1000
,  // measure 33
0200
0000
0000
0000
0000
0000
0000
0000
0300
0000
0010
0000
0000
0100
0000
0001
,  // measure 34
0000
0000
1000
0000
0000
0000
0100
0000
0001
0000
0000
0010
0000
0000
0100
0000
,  // measure 35
0000
0000
0000
0100
0001
0000
0010
0000
,  // measure 36
0002
0000
0003
0000
0010
0000
0001
0100
,  // measure 37
0002
0000
0000
0000
0000
0000
0000
0000
0003
0000
0100
0000
0000
0001
0000
0010
,  // measure 38
0000
0000
0100
0000
0001
0000
1000
0000
0001
0000
0000
0010
0000
0000
0100
0000
,  // measure 39
0000
0000
0000
0010
0001
1000
0001
0100
,  // measure 40
1000
0000
0000
0001
0000
0000
0100
0000
0100
0000
0000
0000
0000
0000
0010
0000
,  // measure 41
0100
0001
0000
0001
0100
0000
0010
0000
,  // measure 42
0001
0000
0000
0001
0100
0000
0000
0100
,  // measure 43
0001
0010
0000
0100
0001
0000
0100
0000
,  // measure 44
0100
0001
1000
0001
0010
0000
0000
0100
,  // measure 45
0001
0010
0000
0001
0100
0000
1000
0000
,  // measure 46
0010
0000
0000
0001
0100
0000
0000
0010
,  // measure 47
0000
0100
0000
0001
0000
0010
0000
0001
,  // measure 48
0100
0000
0000
0100
0001
0010
0000
0100
,  // measure 49
0001
0010
0000
0100
1000
0100
0010
0001
,  // measure 50
0010
0100
0000
0001
0100
1000
0001
0100
,  // measure 51
1000
0100
0000
0001
0010
0100
0001
0010
,  // measure 52
1000
0100
0000
0100
0001
0010
0000
0001
,  // measure 53
0100
0010
0000
0100
0001
1000
0010
0100
,  // measure 54
0001
0010
0000
0001
0100
1000
0000
0001
,  // measure 55
1000
0001
0000
0010
0100
0001
0100
1000
,  // measure 56
0100
0000
0001
0000
0100
0000
0010
0000
0001
0000
1000
0100
0010
0001
0010
0000
,  // measure 57
0001
0000
0100
0000
0010
0000
0001
1000
0100
0000
0010
0000
0001
0000
0100
0000
,  // measure 58
1000
0000
0010
0000
0001
0000
0100
0000
0010
0000
0100
0001
0100
0010
0100
0000
,  // measure 59
0010
0000
0100
0001
1000
0000
0100
0001
0010
0000
0100
0001
1000
0000
0100
0000
,  // measure 60
0001
0000
0010
0000
0100
0000
0010
0001
0100
0010
0100
0001
1000
0000
0100
0001
,  // measure 61
0100
0010
1000
0001
0100
0001
0100
0001
0010
0100
0001
1000
0001
0000
0010
0000
,  // measure 62
0010
0000
0001
0000
0100
0000
0010
0000
1000
0000
0100
0001
0010
0100
0001
0000
,  // measure 63
0100
0000
1000
0000
0001
0000
0100
0010
1000
0100
0001
0000
0010
0000
0001
0000
,  // measure 64
0200
0000
0300
0000
0010
0000
0001
0100
,  // measure 65
2000
0000
0000
0000
3000
0000
0000
0000
0000
0000
0100
0000
0000
0010
0000
0100
,  // measure 66
0000
0000
0010
0000
0000
0000
0100
0000
1000
0000
0000
0001
0000
0000
0010
0000
,  // measure 67
0020
0000
0030
0001
0100
0000
0000
0000
,  // measure 68
0200
0000
0300
0000
0010
0000
0001
0100
,  // measure 69
2000
0000
0000
0000
0000
0000
3000
0000
0000
0000
0100
0000
0000
0001
0000
0000
,  // measure 70
1000
0000
0000
0001
0000
0000
0010
0000
0100
0000
0000
0001
0000
0000
0010
0000
,  // measure 71
0200
0000
0300
0010
0001
1000
0001
0100
,  // measure 72
1000
0000
0000
0010
0100
0000
0000
0000
0000
0000
0000
0000
0001
0000
1000
0000
,  // measure 73
0100
0000
0000
0001
0100
0000
0010
0000
0001
0000
1000
0000
0001
0000
0100
0000
,  // measure 74
1000
0000
0000
0000
0100
0000
0000
0000
0000
0000
0000
0000
0000
0000
0010
0100
,  // measure 75
0001
0000
0001
0100
0010
0000
0001
0000
,  // measure 76
0100
0000
0000
0010
0100
0000
0000
0000
0010
0000
0000
0000
0001
0000
0100
0000
,  // measure 77
2000
0000
0000
3000
,  // measure 78
0010
0000
0200
0000
0000
0000
0300
0101
,  // measure 79
0000
0101
0000
0101
0000
0101
0000
0101
;
