#TITLE:boyfriend forever;
#SUBTITLE:;
#ARTIST:Jae Stephens;
#TITLETRANSLIT:;
#SUBTITLETRANSLIT:;
#ARTISTTRANSLIT:;
#GENRE:;
#CREDIT:;
#BANNER:;
#BACKGROUND:;
#LYRICSPATH:;
#CDTITLE:;
#MUSIC:Jae Stephens - Boyfriend Forever (Official Video).ogg;
#OFFSET:0.000000;
#SAMPLESTART:100.059883;
#SAMPLELENGTH:12.000000;
#SELECTABLE:YES;
#BPMS:0.000000=98.000000
;
#STOPS:0.000000=0.400000
;
#BGCHANGES:0.000=Jae Stephens - Boyfriend Forever (Official Video).mp4=1.200=0=0=1=====,
99999=-nosongbg-=1.000=0=0=0 // don't automatically add -songbackground-
;
#KEYSOUNDS:;
#ATTACKS:;

//---------------dance-single - ----------------
#NOTES:
     dance-single:
     :
     Hard:
     11:
     0.408440,0.551673,0.022380,0.078331,0.391654,511.000000,507.000000,4.000000,14.000000,0.000000,0.000000,0.408440,0.551673,0.022380,0.078331,0.391654,511.000000,507.000000,4.000000,14.000000,0.000000,0.000000:
// measure 0
0000
0000
0000
0000
,  // measure 1
0000
0000
0000
0000
,  // measure 2
0000
0002
0000
0200
0000
0000
0303
0000
,  // measure 3
0010
0001
1000
0001
0100
0010
0100
0001
1000
0000
0010
0000
0100
0001
1000
0000
,  // measure 4
0000
0020
0000
0200
0000
0000
0330
0000
,  // measure 5
0100
0010
0001
1000
0001
0100
1000
0001
0100
0000
0010
0000
0000
0000
0100
0001
,  // measure 6
0000
0000
2000
0000
0000
0000
0200
0000
0000
0000
0000
3000
0300
0000
0000
0000
,  // measure 7
0001
1000
0001
0100
1000
0000
0010
0100
0001
0000
0010
0000
0100
0001
1000
0100
,  // measure 8
0001
0010
0001
0100
1000
0000
0001
0100
1000
0000
0100
0000
0000
0000
0000
0010
,  // measure 9
0001
1000
0001
0100
1000
0000
0001
0100
0010
0000
0100
0000
0001
0000
0000
0000
,  // measure 10
1000
0000
0001
0000
0100
0000
0010
0000
0100
0001
1000
0100
0000
0000
0000
0000
,  // measure 11
0010
0000
0001
0000
0100
0000
0010
0000
0100
0001
0100
1000
0000
0000
0000
0000
,  // measure 12
0100
0000
0001
1000
0100
0000
0010
0100
0001
0100
0000
0010
0000
0000
0000
1000
,  // measure 13
0100
0000
0001
0000
0010
0100
0000
0001
0010
0000
0100
0000
0001
0000
0100
0000
,  // measure 14
0010
0001
1000
0001
0100
0010
0001
1000
0001
0100
1000
0001
0100
0000
0000
0000
,  // measure 15
0100
0010
0001
1000
0001
0100
0001
0100
0010
0001
1000
0100
1000
0100
0001
0000
,  // measure 16
0001
0000
1000
0000
0001
0000
0100
0000
0001
0000
0100
0000
0010
0000
1000
0100
,  // measure 17
0001
0000
1000
0100
0000
0001
0010
0000
0100
0001
0000
1000
0100
0000
0000
0000
,  // measure 18
0010
0001
0100
0010
0001
1000
0001
0100
,  // measure 19
1000
0000
0000
0100
0000
0000
0010
0001
1000
0000
0001
0000
0100
0000
0000
0000
,  // measure 20
0100
0001
0100
0010
0001
1000
0001
0100
,  // measure 21
2000
0000
0000
0000
3000
0000
0100
0001
0100
0000
0001
0000
0100
0000
0000
0000
,  // measure 22
0010
0001
1000
0001
0100
0000
0001
0000
2000
0000
0000
0000
3000
0000
0000
0000
,  // measure 23
0001
1000
0001
0100
0010
0000
0001
0000
0200
0000
0000
0000
0300
0000
0000
0000
,  // measure 24
0100
0010
0001
1000
0001
0100
1000
0000
,  // measure 25
0100
0001
0100
0010
0001
1000
0001
0100
,  // measure 26
1000
0000
0000
0000
0001
0000
0100
0000
0010
0000
1000
0001
0100
0010
0000
0100
,  // measure 27
0000
0000
0000
0000
0100
0000
0010
0000
0100
0001
1000
0000
0100
0010
0000
0100
,  // measure 28
0000
0000
0000
0000
1000
0000
0100
0000
0001
0010
0100
0001
0000
0000
0000
1000
,  // measure 29
0100
0001
0100
0001
0010
0001
0000
0000
0001
0100
0000
0010
0000
0000
0000
1000
,  // measure 30
0100
0001
1000
0001
0010
0010
0001
1000
0001
0100
0001
1000
0100
0000
0000
0000
,  // measure 31
0001
0100
0010
0001
1000
0001
0100
0010
0001
1000
0001
0100
1000
0100
0001
0000
,  // measure 32
0001
0000
1000
0000
0001
0000
0100
0000
0000
0000
0010
0000
0100
0000
0010
0100
,  // measure 33
0001
0000
1000
0100
0000
0001
0010
0000
0100
0001
0000
1000
0100
0000
0000
0000
,  // measure 34
0010
0001
0100
0010
0001
1000
0001
0100
,  // measure 35
1000
0000
0010
0000
0000
0000
0100
0001
0010
0000
0001
0000
0100
1000
0001
0000
,  // measure 36
0010
0001
0100
0010
0001
1000
0001
0100
,  // measure 37
1000
0000
0000
0000
0000
0000
0001
0100
1000
0000
0001
0000
0100
0000
0000
0000
,  // measure 38
0010
0001
0100
1000
0100
0000
0001
0000
1000
0000
0000
0000
0000
0000
0000
0000
,  // measure 39
0001
1000
0001
0100
1000
0000
0100
0000
0020
0000
0000
0000
0130
0000
0000
0000
,  // measure 40
0100
0010
0001
1000
0001
0100
1000
0000
,  // measure 41
0010
0001
0100
0010
0001
1000
0001
0100
,  // measure 42
0020
0000
0000
0000
,  // measure 43
0000
0000
0000
0000
0000
0000
0000
0000
0000
0000
0000
0000
0030
0000
0100
0001
,  // measure 44
1000
0000
0000
0001
0000
0000
0010
0100
0001
1000
0001
0000
1000
0000
0000
0000
,  // measure 45
1100
1100
0000
0101
0101
0000
0000
0000
,  // measure 46
0100
0000
0000
0010
0000
0000
0100
0000
1000
0000
0000
0001
0000
0000
0100
0000
,  // measure 47
0010
0000
0000
0001
0000
0000
0100
0000
1000
0000
0000
0001
0100
0001
1000
0001
,  // measure 48
0010
0000
0000
0100
0000
0000
0010
0000
0001
0000
0000
0100
0000
0000
1000
0000
,  // measure 49
0100
0000
0000
0010
0000
0000
0001
0000
0100
0000
0000
0010
0100
0001
1000
0001
,  // measure 50
0010
0000
0000
0100
0000
0000
0010
0000
0001
0000
0000
0100
0000
0000
1000
0000
,  // measure 51
0100
0000
0000
0010
0000
0000
0001
0000
0100
0000
0000
0010
0001
0100
0001
1000
,  // measure 52
0100
0000
0000
0100
0000
0000
1000
0000
0001
0000
0000
0100
0000
0000
0010
0000
,  // measure 53
0001
0000
0100
0000
0010
0000
0001
0000
1000
0010
0001
0100
0100
1000
0010
0001
,  // measure 54
0020
0000
0000
0000
,  // measure 55
0000
0000
0000
0000
0030
0000
0100
0001
0010
0000
0100
0000
0001
1000
0200
0000
,  // measure 56
0000
0000
0000
0000
,  // measure 57
0000
0000
0000
0000
0300
0000
0100
0001
1000
0000
0001
0000
1000
0000
0000
0000
,  // measure 58
0100
0010
0100
0001
1000
0000
0100
0000
0010
0000
0001
0000
1000
0000
0000
0000
,  // measure 59
1000
0100
0001
0010
0100
0000
0001
0000
0100
0000
0000
0000
0000
0000
0000
0000
,  // measure 60
0100
0010
0001
1000
0001
0100
1000
0000
,  // measure 61
0100
0010
0001
1000
0001
0100
0010
0001
,  // measure 62
1000
0001
0100
0010
0001
1000
0001
0100
,  // measure 63
2000
0000
0000
3000
,  // measure 64
0010
0001
0100
0010
0001
1000
0001
0100
,  // measure 65
1000
0000
0000
0000
0000
0000
0001
0100
0010
0000
0001
0000
0100
0000
0000
0000
,  // measure 66
0001
1000
0001
0100
1000
0000
0001
0000
0100
0000
0000
0000
0000
0000
0000
0000
,  // measure 67
0010
0001
0100
0010
1000
0000
0001
0000
0100
0000
0000
0000
0001
1000
0001
0100
,  // measure 68
1000
0000
0000
0000
;
