#TITLE:body high;
#SUBTITLE:;
#ARTIST:It's Murph & Emi Grace;
#TITLETRANSLIT:;
#SUBTITLETRANSLIT:;
#ARTISTTRANSLIT:;
#GENRE:;
#CREDIT:;
#BANNER:;
#BACKGROUND:;
#LYRICSPATH:;
#CDTITLE:;
#MUSIC:Body High.ogg;
#OFFSET:0.000000;
#SAMPLESTART:100.059883;
#SAMPLELENGTH:12.000000;
#SELECTABLE:YES;
#BPMS:0.000000=132.000000
;
#STOPS:0.000000=1.500000
;
#BGCHANGES:;
#KEYSOUNDS:;
#ATTACKS:;

//---------------dance-single - ----------------
#NOTES:
     dance-single:
     :
     Hard:
     14:
     0.553799,0.729792,0.171946,0.005210,0.390786,744.000000,711.000000,33.000000,1.000000,0.000000,0.000000,0.553799,0.729792,0.171946,0.005210,0.390786,744.000000,711.000000,33.000000,1.000000,0.000000,0.000000:
// measure 0
0000
0000
0000
0000
,  // measure 1
0000
0000
0000
0000
,  // measure 2
1000
0000
0000
0001
0010
0000
0100
0000
0001
0010
0000
0000
0010
0001
0000
0000
,  // measure 3
0001
0100
0000
0000
1000
0010
0000
0000
0001
0100
0000
0000
0100
0010
0000
0000
,  // measure 4
0010
0000
0000
0001
0000
0000
0000
0010
0000
0000
0001
0000
0100
0000
1000
0000
,  // measure 5
0001
0000
0000
0100
0000
0000
0000
0010
0000
0000
0001
0000
0100
0000
1000
0000
,  // measure 6
0100
0000
0000
0001
0010
0000
0000
0000
1000
0000
0001
0000
0100
0000
0010
0000
,  // measure 7
0001
0100
0010
0000
0100
0000
0100
0000
,  // measure 8
0001
0000
0000
1000
0000
0000
0000
0010
0000
0000
0001
0000
0010
0000
0100
0000
,  // measure 9
0001
0000
0000
0100
0000
0000
0000
0010
0000
0000
0001
0000
0100
0000
1000
0000
,  // measure 10
0100
0000
0000
0100
0000
0000
0000
0010
0000
0000
1000
0000
0001
0000
0100
0000
,  // measure 11
1000
0010
0001
0000
0100
0000
0010
0000
,  // measure 12
0101
1010
0101
0110
,  // measure 13
0101
1001
0011
0101
,  // measure 14
0010
0001
0100
0010
0001
0100
0001
0100
,  // measure 15
0001
0000
1000
0000
0100
0000
0000
0000
0100
0010
0100
0000
0001
0000
0000
0000
,  // measure 16
0100
0000
0000
0001
0010
0000
1000
0100
0001
0000
0000
0000
0010
0000
0100
0000
,  // measure 17
0010
0000
0000
0100
0001
0000
0010
0100
0001
0000
0010
0000
0001
0000
0100
0000
,  // measure 18
1000
0000
0000
0100
0001
0000
0010
0100
0001
0000
1000
0000
0100
0000
0001
0000
,  // measure 19
0010
0100
0001
0100
,  // measure 20
1000
0000
0000
0100
0001
0000
0010
0001
0100
0000
0001
0010
0100
0001
1000
0000
,  // measure 21
0100
0000
0000
0010
0100
0000
0001
1000
0100
0000
0010
0000
0001
0000
0100
0000
,  // measure 22
1000
0000
0000
0100
0010
0000
0001
0100
0010
0000
0100
0000
0001
0000
0100
0000
,  // measure 23
1000
0100
0010
0000
0001
0000
0100
0000
,  // measure 24
0010
0001
0100
0001
0000
0000
0010
0100
0000
0000
0000
0100
0000
0001
1000
0100
,  // measure 25
0001
0010
0100
0001
0000
1000
0100
0001
0000
0010
0000
0100
0000
0001
1000
0100
,  // measure 26
0001
0100
0010
0100
0000
0001
1000
0000
0000
0100
0001
1000
0100
0001
0010
0100
,  // measure 27
0001
0100
0010
0100
,  // measure 28
0000
0000
1000
0100
0000
0010
0100
0000
0000
0010
0001
1000
0001
0100
1000
0001
,  // measure 29
0100
0100
0001
0100
1000
0000
0010
0100
0000
0010
0000
0100
0000
1000
0100
0001
,  // measure 30
0010
0100
0001
1000
0001
0000
0010
0100
0000
0010
0000
0100
0001
0100
0001
0100
,  // measure 31
1000
0100
0001
1000
0001
0100
0001
1000
0001
0000
0010
0000
0001
0000
0100
0000
,  // measure 32
1000
0001
0100
0010
0001
0100
0010
0001
,  // measure 33
1000
0001
0100
0010
0001
0100
0001
0100
,  // measure 34
1000
0001
1000
0001
0100
0010
0001
0100
,  // measure 35
0001
0100
0010
0001
0100
0001
0100
1000
,  // measure 36
0100
0010
0001
0100
0001
0100
0010
0001
,  // measure 37
0100
0001
0100
0010
0001
1000
0001
0100
,  // measure 38
0010
0001
0100
0001
0100
0010
0001
0100
,  // measure 39
0001
0100
0010
0001
1000
0001
0010
0100
,  // measure 40
0001
0000
0100
0000
0010
0000
0000
0100
,  // measure 41
0000
1000
0000
0100
0000
0000
0000
0000
,  // measure 42
0000
0100
0000
0000
0000
0000
0000
0000
,  // measure 43
0000
0010
0000
0000
0001
0100
0001
0100
,  // measure 44
1000
0000
0010
0000
0100
0000
0000
0001
,  // measure 45
0000
1000
0000
0200
0000
0000
0000
0000
,  // measure 46
0000
0000
0000
0000
,  // measure 47
0000
0000
0000
0000
0300
0000
0000
0001
0000
0000
0010
0000
0100
0000
0001
0000
,  // measure 48
1000
0000
0000
0100
0000
0000
0000
0001
0000
0000
0010
0000
0100
0000
0001
0000
,  // measure 49
1000
0000
0000
0001
0000
0000
0000
0010
0000
0000
0100
0000
0001
0000
1000
0000
,  // measure 50
0100
0000
0000
0001
0000
0000
0010
0000
0100
0010
0000
0000
0100
0001
0000
0000
,  // measure 51
1000
0001
0000
0000
0010
0100
0000
0000
0001
0010
0000
0000
0100
1000
0000
0000
,  // measure 52
0010
0000
0000
0100
0000
0000
0000
0001
0000
0000
0010
0000
0100
0000
0001
0000
,  // measure 53
1000
0000
0000
0100
0000
0000
0000
0100
0010
0000
0001
0000
0100
0000
1000
0000
,  // measure 54
0100
0000
0010
0000
0100
0001
0100
1000
,  // measure 55
0100
0000
0001
0000
1000
0000
0000
0001
0000
0000
0010
0000
0100
0000
0001
0000
,  // measure 56
1000
0000
0000
0001
0000
0000
0010
0000
0100
0000
0001
0000
1000
0000
0001
0000
,  // measure 57
0010
0000
0000
0001
0000
0000
0000
0010
0000
0000
0100
0000
0001
0000
1000
0000
,  // measure 58
0100
0000
0000
0010
0000
0000
0100
0000
0001
1000
0000
0000
0100
0001
0000
0000
,  // measure 59
0010
0100
0000
0000
0001
1000
0000
0000
0100
0001
0000
0000
0010
0100
0000
0000
,  // measure 60
0001
0000
0000
1000
0000
0000
0000
0100
0000
0000
0001
0000
0010
0000
0100
0000
,  // measure 61
0001
0000
0000
1000
0000
0000
0000
0100
0000
0000
0001
0000
1000
0000
0100
0000
,  // measure 62
0001
0000
0100
0000
1000
0001
0100
0010
,  // measure 63
0001
0100
1000
0000
0001
0000
0100
0000
,  // measure 64
0110
1100
0110
0101
,  // measure 65
0110
1100
0110
0101
,  // measure 66
0110
1100
0110
0101
,  // measure 67
0110
1100
0101
0110
,  // measure 68
1000
0000
0000
0001
0000
0000
0000
0010
0000
0000
0100
0000
0001
0000
0100
0000
,  // measure 69
0001
0000
0000
0010
0000
0000
0000
0100
0000
0000
0001
0000
1000
0000
0100
0000
,  // measure 70
0001
0000
0000
0010
0000
0000
0000
0100
0000
0000
0001
0000
1000
0000
0100
0000
,  // measure 71
0001
0000
0000
0010
0000
0000
0000
0100
0000
0000
0001
0000
1000
0000
0100
0000
,  // measure 72
0100
0000
0001
0100
1000
0000
0010
0001
,  // measure 73
0100
0000
0001
0100
1000
0000
0001
0100
,  // measure 74
0010
0000
0001
0100
1000
0000
1000
0001
,  // measure 75
0100
0000
0010
0001
0100
0000
0100
0001
,  // measure 76
0110
0101
0110
0110
,  // measure 77
1100
0110
0101
0110
,  // measure 78
1000
0100
0001
0100
0001
1000
0001
0010
,  // measure 79
1000
0001
0100
0000
0010
1000
0100
0001
,  // measure 80
0010
0000
0000
0001
0000
0000
0010
0000
0000
0100
0001
0000
0001
0000
0100
0000
,  // measure 81
1000
0000
0000
0001
0000
0000
0100
0000
0000
0010
0100
0000
0001
0000
0100
0000
,  // measure 82
1001
0000
0000
0000
0010
0001
0100
0000
1000
0001
0100
0000
0010
0001
0100
0000
,  // measure 83
1000
0000
0100
0001
0000
0010
0100
0001
0100
0000
0001
0000
0100
0000
0010
0000
,  // measure 84
0100
0000
0000
0001
0000
0000
1000
0000
0000
0100
0001
0000
0010
0000
0100
0000
,  // measure 85
1000
0000
0000
0001
0000
0000
0010
0000
0000
0100
0001
0000
1000
0000
0100
0000
,  // measure 86
0000
0000
0000
0000
0010
0100
0001
0000
0001
0100
0010
0000
0001
1000
0100
0000
,  // measure 87
0010
0000
0100
0001
0000
1000
0100
0001
0010
0000
0000
0000
1000
0000
0000
0000
,  // measure 88
0100
0000
0000
0001
0010
0000
0010
0100
0001
0000
0000
0000
0010
0000
1000
0000
,  // measure 89
0100
0000
0000
0001
0010
0000
0010
0100
0001
0000
0010
0000
0001
0000
0100
0000
,  // measure 90
0010
0000
0001
0100
0010
0000
0001
1000
0001
0000
0010
0000
0100
0000
0010
0000
,  // measure 91
0001
0001
0010
0100
0001
0010
0100
0001
,  // measure 92
0010
0000
0000
0001
0010
0000
1000
0100
0001
0000
0010
0100
0001
0000
0001
0000
,  // measure 93
1000
0000
0100
0001
0000
0000
0010
0100
0001
0000
0010
0000
0100
0000
0001
0000
,  // measure 94
0010
0000
0000
0001
0010
0000
1000
0100
0001
0000
0010
0000
0001
0000
0100
0000
,  // measure 95
1000
0010
0100
0001
0100
0001
0010
0001
,  // measure 96
0100
0001
0010
0001
1000
0100
0001
0100
,  // measure 97
0010
0100
0010
0100
0001
0100
0001
0100
,  // measure 98
0001
0100
0010
0001
0100
0001
0100
1000
,  // measure 99
0100
0010
0001
0100
0001
0100
0010
0001
,  // measure 100
1000
0001
0100
0010
0001
0100
0001
0100
,  // measure 101
0010
0001
1000
0001
0100
0010
0001
0100
,  // measure 102
0001
0100
0010
0001
1000
0001
0100
0001
,  // measure 103
0100
0010
0001
0000
0100
0000
1000
0000
;
