#TITLE:blue valentine;
#SUBTITLE:;
#ARTIST:NMIXX;
#TITLETRANSLIT:;
#SUBTITLETRANSLIT:;
#ARTISTTRANSLIT:;
#GENRE:;
#CREDIT:;
#BANNER:;
#BACKGROUND:;
#LYRICSPATH:;
#CDTITLE:;
#MUSIC:blue valentine.ogg;
#OFFSET:0.000000;
#SAMPLESTART:0.059886;
#SAMPLELENGTH:12.000000;
#SELECTABLE:YES;
#BPMS:0.000000=80.000000
,48.000000=39.000000
,49.000000=41.000000
,50.000000=52.000000
,51.000000=62.999996
,52.000000=70.000000
,53.000000=80.000000
,54.000000=90.000000
,57.000000=76.000000
,63.000000=80.000000
,65.000000=160.000000
,160.000000=40.000000
,161.000000=42.000000
,162.000000=48.000000
,163.000000=52.000000
,164.000000=62.000000
,166.000000=68.000000
,168.000000=80.000000
,175.000000=160.000000
,378.500000=120.000000
;
#STOPS:0.000000=1.400000,
128.000000=0.200000,
188.000000=1.900000
;
#BGCHANGES:;
#KEYSOUNDS:;
#ATTACKS:;

//---------------dance-single - ----------------
#NOTES:
     dance-single:
     :
     Hard:
     12:
     0.442345,0.830056,0.038026,0.141240,0.236305,570.000000,563.000000,7.000000,26.000000,0.000000,0.000000,0.442345,0.830056,0.038026,0.141240,0.236305,570.000000,563.000000,7.000000,26.000000,0.000000,0.000000:
// measure 0
0000
0000
0000
0000
,  // measure 1
0000
0000
0000
0000
,  // measure 2
0020
0000
0000
0000
0000
0000
0000
0000
0030
0000
0000
0000
0100
0001
1000
0000
,  // measure 3
0000
0000
0000
0000
,  // measure 4
1000
0100
0001
1000
0001
0010
0100
0001
0020
0000
0000
0000
0030
0000
0000
0000
,  // measure 5
0100
0000
0000
0010
0001
0100
0001
1000
0200
0000
0000
0000
0300
0000
0000
0000
,  // measure 6
1000
0000
0100
0000
0001
0100
0010
0001
2000
0000
0000
0000
3000
0000
0000
0000
,  // measure 7
1000
0000
0100
0000
0001
0000
0010
0000
0100
0000
0001
0000
1000
0000
0010
0000
0001
0000
0100
0000
0000
0010
0000
0000
,  // measure 8
0000
0000
0000
0100
0001
0000
0000
1000
0100
0000
0000
0010
0100
0000
0001
1000
,  // measure 9
0100
0001
0010
0001
1000
0001
0100
0010
0001
0000
1000
0000
0100
0000
0000
0000
,  // measure 10
0000
0000
0000
0100
1000
0000
0000
0010
0001
0000
0000
1000
0100
0000
0010
0100
,  // measure 11
0001
1000
0100
0001
0010
1000
0001
0100
0010
0000
0100
0000
0001
0000
1000
0000
,  // measure 12
1000
0100
1000
0001
0010
0100
0001
0010
0100
0000
1000
0000
0001
1000
0001
0100
,  // measure 13
1000
0010
0001
1000
0100
0010
0001
0100
1000
0000
0000
0000
0100
0010
0001
0100
,  // measure 14
1000
0001
0100
0000
0010
0100
0001
0010
1000
0010
0001
0010
0100
0000
0010
0100
,  // measure 15
0001
0000
1000
0100
0001
0010
0100
0010
1000
0000
0100
0010
0001
0010
0100
0010
,  // measure 16
1000
0100
0010
0000
0000
0001
0000
0000
,  // measure 17
0010
0000
0100
0000
0000
0001
0000
0000
,  // measure 18
0000
0000
1000
0000
0000
0100
0001
0010
,  // measure 19
0100
0001
0020
0000
0000
0000
0030
0000
,  // measure 20
1000
0000
0010
0000
0000
0001
0000
0000
,  // measure 21
1000
0000
0100
0000
0000
0001
0000
0000
,  // measure 22
0000
0000
1000
0000
0100
0001
0100
0001
,  // measure 23
1000
0002
0000
0003
0010
0100
0001
1000
,  // measure 24
0001
0020
0000
0100
0100
0100
0100
0100
,  // measure 25
0100
0100
0100
0130
0000
0000
0100
1000
,  // measure 26
0001
0000
0100
0001
1000
0000
0100
0001
,  // measure 27
0010
0000
0001
1000
0100
0010
0100
0001
,  // measure 28
1000
0001
0020
0000
0100
0100
0100
0100
,  // measure 29
0100
0100
0100
0100
0130
0000
0001
0100
,  // measure 30
1000
0000
0100
0001
1000
0000
0100
0001
,  // measure 31
0010
0000
0100
0001
1000
0000
0000
0000
,  // measure 32
0000
0000
0100
0000
0001
1000
0100
0000
,  // measure 33
0010
0100
0001
1000
0001
0010
0100
0000
,  // measure 34
0100
0000
0010
0001
0100
0000
1000
0000
,  // measure 35
0010
0000
0001
0100
0001
0100
1000
0000
,  // measure 36
0110
0000
0011
0000
1000
0200
0000
0000
,  // measure 37
0000
0300
0001
1000
0100
0001
1000
0100
,  // measure 38
0000
1000
0100
0000
0010
0000
1000
0000
,  // measure 39
0000
0010
0110
0000
1001
0000
0000
0000
,  // measure 40
1000
0100
0001
1000
0001
0000
0001
0100
1000
0000
0010
0000
0001
0100
0001
0100
,  // measure 41
1000
0100
0001
1000
0100
0010
0100
0000
0000
0000
0001
0100
0010
0100
1000
0000
,  // measure 42
1000
0100
0001
1000
0001
0010
0100
0010
0001
1000
0001
0100
0001
0100
0010
0001
,  // measure 43
1000
0001
0100
0010
0001
1000
0001
0100
0001
0100
1000
0020
0000
0000
0000
0000
,  // measure 44
0000
0000
0030
0000
0100
0000
0000
0000
0010
0000
0000
0000
1000
0000
0100
0001
,  // measure 45
0010
0000
0100
0000
0100
0000
0000
0000
0010
0000
0000
0000
1000
0000
0100
0001
,  // measure 46
0010
0000
0001
0000
1000
0000
0100
0000
0001
0000
0100
0000
0010
0000
0001
0100
,  // measure 47
1000
0000
0000
0001
0000
0000
1000
0000
,  // measure 48
0100
0000
0000
0010
0000
0000
0000
0000
,  // measure 49
0100
0000
0000
0010
0001
1000
0001
1000
,  // measure 50
0100
0000
0000
1000
,  // measure 51
0100
0000
0000
0001
0000
0000
0010
0000
,  // measure 52
0100
0000
0000
1000
0000
0000
0100
0000
,  // measure 53
0001
0000
0000
0100
0010
1000
0001
0100
,  // measure 54
1000
0000
0000
0100
0001
1000
0001
0010
,  // measure 55
0200
0000
0010
0010
0010
0010
0010
0010
,  // measure 56
0010
0010
0010
0010
0310
0001
1000
0000
,  // measure 57
1000
0001
0100
0000
0010
0100
0001
0000
,  // measure 58
1000
0100
0001
0100
0010
0100
0001
0010
,  // measure 59
1200
0000
1000
1000
1000
1000
1000
1000
,  // measure 60
1000
1000
1300
1000
1000
0100
0001
0000
,  // measure 61
2000
0000
0000
0000
,  // measure 62
0002
0000
0000
3003
,  // measure 63
0001
1000
0001
0100
,  // measure 64
2000
0000
3000
1000
,  // measure 65
0001
0100
1000
0001
,  // measure 66
0100
0000
0000
0001
0000
0000
0010
0000
,  // measure 67
0001
0100
0010
0001
,  // measure 68
1000
0000
0001
0010
0100
0000
0010
0000
,  // measure 69
0001
0100
0010
0001
1000
0001
0100
0001
,  // measure 70
2002
3003
0110
1000
,  // measure 71
0001
0000
0000
0100
0000
0000
0010
0000
,  // measure 72
0100
0000
0000
1000
0000
0000
0000
0000
,  // measure 73
0100
0000
0000
0010
0001
1000
0001
0100
,  // measure 74
1000
0000
0100
0001
1000
0001
0010
0100
,  // measure 75
0001
0000
0000
1000
0000
0000
0100
0000
,  // measure 76
0100
0000
0000
1000
0000
0000
0100
0000
,  // measure 77
0100
0000
0000
0010
0001
1000
0001
0100
,  // measure 78
1000
0000
0000
0010
0001
1000
0001
0100
,  // measure 79
2000
0000
0001
0001
0001
0001
0001
0001
,  // measure 80
0001
0001
0001
0001
3001
0010
0100
0000
,  // measure 81
0001
1000
0100
0000
0010
0100
0001
0000
,  // measure 82
1000
0100
0001
0010
0100
0001
1000
0001
,  // measure 83
0020
0000
0100
0100
0100
0100
0100
0100
,  // measure 84
0100
0100
0100
0100
0130
0001
1000
0000
,  // measure 85
0001
0100
0010
0000
0001
0100
0010
0000
,  // measure 86
1000
0100
0001
0000
0010
0100
0001
0000
0010
0000
0100
0000
0001
0000
1000
0000
,  // measure 87
0001
0000
0100
0001
0100
0000
0100
0001
,  // measure 88
0010
0200
0000
0000
,  // measure 89
0020
0000
0000
0330
,  // measure 90
0010
0100
0001
0000
1000
0100
0001
0000
0010
0000
0001
0000
0100
0000
1000
0000
,  // measure 91
0010
0000
0100
0001
1000
0000
0100
0001
,  // measure 92
0010
0200
0000
0000
,  // measure 93
0020
0000
0330
0000
0100
0001
0002
0000
,  // measure 94
2000
0000
0000
0000
3003
0001
1000
0200
,  // measure 95
0000
0000
0300
0000
;
