#VERSION:0.83;
#TITLE:blackout;
#SUBTITLE:;
#ARTIST:Breathe Carolina;
#TITLETRANSLIT:;
#SUBTITLETRANSLIT:;
#ARTISTTRANSLIT:;
#GENRE:;
#ORIGIN:;
#CREDIT:;
#BANNER:;
#BACKGROUND:;
#PREVIEWVID:;
#JACKET:;
#CDIMAGE:;
#DISCIMAGE:;
#LYRICSPATH:;
#CDTITLE:;
#MUSIC:Breathe Carolina - Blackout Lyric Video.ogg;
#OFFSET:0.000000;
#SAMPLESTART:100.059883;
#SAMPLELENGTH:12.000000;
#SELECTABLE:YES;
#BPMS:0.000=123.000,
62.000=246.000,
64.000=123.000,
78.000=246.000,
80.000=123.000,
142.000=246.000,
144.000=123.000,
158.000=246.000,
160.000=123.000,
174.000=246.000,
176.000=123.000,
190.000=246.000,
192.000=123.000,
302.000=246.000,
304.000=123.000,
318.000=246.000,
320.000=123.000,
334.000=246.000,
336.000=123.000,
350.000=246.000,
352.000=123.000,
366.000=246.000,
368.000=123.000,
382.000=246.000,
384.000=123.000,
398.000=246.000,
400.000=123.000,
414.000=246.000,
416.000=123.000;
#STOPS:0.000=0.150,
62.000=0.100,
63.000=0.150,
64.000=0.100,
78.000=0.100,
79.000=0.100,
80.000=0.300,
142.000=0.100,
143.000=0.150,
144.000=0.300,
158.000=0.100,
159.000=0.150,
160.000=0.300,
174.000=0.100,
175.000=0.150,
176.000=0.250,
190.000=0.100,
191.000=0.150,
192.000=0.250,
302.000=0.100,
303.000=0.150,
304.000=0.250,
318.000=0.100,
319.000=0.150,
320.000=0.250,
334.000=0.100,
335.000=0.150,
336.000=0.250,
350.000=0.100,
351.000=0.150,
352.000=0.200,
366.000=0.100,
367.000=0.150,
368.000=0.200,
382.000=0.100,
383.000=0.150,
384.000=0.200,
398.000=0.100,
399.000=0.150,
400.000=0.200,
414.000=0.100,
415.000=0.150,
416.000=0.250;
#DELAYS:;
#WARPS:;
#TIMESIGNATURES:0.000=4=4;
#TICKCOUNTS:0.000=4;
#COMBOS:0.000=1;
#SPEEDS:0.000=1.000=0.000=0;
#SCROLLS:0.000=1.000;
#FAKES:;
#LABELS:0.000=Song Start;
#BGCHANGES:;
#KEYSOUNDS:;
#ATTACKS:
;

//---------------dance-single - ----------------
#NOTEDATA:;
#CHARTNAME:;
#STEPSTYPE:dance-single;
#DESCRIPTION:;
#CHARTSTYLE:;
#DIFFICULTY:Hard;
#METER:11;
#RADARVALUES:0.454489,0.604517,0.303444,0.018965,0.161205,671.000000,607.000000,64.000000,4.000000,0.000000,0.000000,0.000000,0.000000,0.000000,0.454489,0.604517,0.303444,0.018965,0.161205,671.000000,607.000000,64.000000,4.000000,0.000000,0.000000,0.000000,0.000000,0.000000;
#CREDIT:;
#NOTES:
// measure 0
0000
0000
0000
0000
,  // measure 1
0000
0000
0000
0000
,  // measure 2
0100
0000
0001
0000
0010
0000
0000
0100
,  // measure 3
0010
0001
0000
0100
0000
0010
0000
0100
,  // measure 4
0000
0100
0010
0001
,  // measure 5
0100
0001
0100
0001
1000
0001
0010
0100
0001
1000
0001
0010
0100
0001
0100
0001
,  // measure 6
0010
0100
0001
0100
0010
0000
0010
0001
,  // measure 7
0100
0001
0100
1000
0000
0100
0010
0001
,  // measure 8
0000
0100
0000
0010
0000
0002
0000
0000
,  // measure 9
0000
0000
0000
0003
0000
0001
0100
0010
,  // measure 10
0100
0000
0000
0000
0000
0000
0001
0000
0100
0000
0000
0010
0000
0000
0001
0000
,  // measure 11
0000
0100
0010
0001
0100
0001
0100
1000
,  // measure 12
0000
0000
0000
0000
0001
0000
0100
0000
0010
0000
0000
0001
0000
0000
0100
0000
,  // measure 13
0000
0000
0000
0001
1000
0001
0100
0010
,  // measure 14
0100
0000
0000
0000
0010
0000
0000
0000
0000
0000
0100
0010
0001
0100
0001
0100
,  // measure 15
1000
0000
0100
1000
0001
0000
1000
0000
,  // measure 16
0100
0000
0010
0000
0100
0001
1000
0001
,  // measure 17
0010
0000
0100
0010
1000
0001
0100
0010
,  // measure 18
1000
0100
0001
0000
0010
0100
0001
0000
1000
0100
0001
0100
0001
0010
0100
0000
,  // measure 19
0010
0100
0001
0000
1000
0100
0001
0000
0010
0000
0000
0000
0100
0000
0000
0000
,  // measure 20
0100
1000
0100
0001
,  // measure 21
0100
0000
0000
0100
0010
0001
0100
0001
,  // measure 22
0100
0000
1000
0000
0000
0000
0000
0010
,  // measure 23
0100
0001
0000
0100
0000
0001
0000
0100
,  // measure 24
0000
0000
0010
0100
0001
0010
0100
0000
,  // measure 25
2000
0000
0200
3300
,  // measure 26
1100
1100
1100
0000
0100
0000
0010
0001
,  // measure 27
0100
0001
0100
0001
0000
0001
0010
0100
,  // measure 28
0000
0010
0000
0001
0000
0200
0000
0000
,  // measure 29
0000
0000
0000
0000
0300
0010
0001
0100
,  // measure 30
1000
0000
0000
0000
0000
0000
0100
0000
0010
0000
0000
0001
0000
0000
0100
0000
,  // measure 31
0000
0100
0010
0001
0100
0001
0100
1000
,  // measure 32
0000
0000
0000
0000
0010
0000
0100
0000
0001
0000
0000
1000
0000
0000
0100
0000
,  // measure 33
0000
0000
0000
0010
0001
0100
0001
0100
,  // measure 34
1000
0000
0000
0000
0010
0000
0000
0000
0000
0000
0100
0010
0001
0100
0001
0100
,  // measure 35
1000
0000
0000
0001
0100
0000
0100
0000
,  // measure 36
0010
0000
0010
0000
0001
0100
0001
0100
,  // measure 37
1000
0000
0010
0001
1000
0001
0100
0010
,  // measure 38
1000
0100
0001
0000
0001
0100
0010
0000
0100
0010
0001
0100
0001
0100
1000
0000
,  // measure 39
0010
0001
0100
0000
0010
0001
0100
0000
0100
0000
0000
0000
0010
0000
0000
0000
,  // measure 40
0100
0010
0100
0001
,  // measure 41
0100
0000
0000
0010
0001
1000
0001
0100
,  // measure 42
1000
0000
0000
0000
0100
0000
0000
0000
0000
0000
0100
0010
0001
1000
0001
0100
,  // measure 43
1000
0000
0000
0001
0100
0000
0010
0000
,  // measure 44
0100
0000
0010
0000
0001
0100
0001
0100
,  // measure 45
1000
0000
0010
0001
1000
0001
0100
0010
,  // measure 46
1000
0100
0001
0000
0100
0010
0100
0000
0001
0100
0001
0100
0001
1000
0100
0000
,  // measure 47
0010
0100
0001
0000
0100
0001
0010
0000
0100
0000
0000
0000
0010
0000
0000
0000
,  // measure 48
0001
0010
0000
0100
,  // measure 49
0001
0000
0000
0010
0001
1000
0001
0100
,  // measure 50
1001
0000
0000
0011
0000
0000
0101
0000
,  // measure 51
0000
0101
0000
0001
0011
0000
1001
0000
,  // measure 52
0101
0000
0000
0110
0000
0000
1001
0000
,  // measure 53
0000
1001
0000
0001
1001
0000
0110
0000
,  // measure 54
0101
0000
0000
0110
0000
0000
1001
0000
,  // measure 55
0000
0101
0000
0100
0101
0000
0110
0000
,  // measure 56
0101
0100
0010
1001
0100
0010
0101
0100
,  // measure 57
0010
1001
0010
0100
0101
0000
0101
0000
,  // measure 58
1000
0100
0100
0010
,  // measure 59
0100
0010
0100
0010
,  // measure 60
0100
0010
0010
0100
,  // measure 61
1000
0010
0100
0010
,  // measure 62
0100
0010
0100
0010
,  // measure 63
0100
1000
0100
0010
,  // measure 64
0100
0010
0010
0001
,  // measure 65
0100
0001
0100
0010
,  // measure 66
0101
0000
0100
1100
0000
0000
0101
0000
,  // measure 67
1000
0110
0000
0001
1001
0000
0101
0000
,  // measure 68
1001
0000
0010
0110
0000
0000
0001
0000
,  // measure 69
1000
1001
0000
0001
0101
0000
0101
0000
,  // measure 70
0010
0000
0100
0110
0000
0000
1001
0000
,  // measure 71
0001
1001
0000
0100
0101
0000
0110
0000
,  // measure 72
1001
0001
1000
1001
0010
0100
0110
0100
,  // measure 73
0001
0101
0010
0100
0101
0100
0001
1000
,  // measure 74
0011
0000
0000
0000
0010
0000
0000
0000
0000
0000
0010
0100
0001
0100
0001
0100
,  // measure 75
1000
0000
0101
1001
,  // measure 76
0101
0000
0010
0000
0001
0100
0001
0100
,  // measure 77
1000
0000
0100
0010
0001
0100
0001
0100
,  // measure 78
1000
0100
0001
0000
0010
0100
0001
0000
1000
0100
0001
0100
0001
0100
0010
0000
,  // measure 79
0100
0001
0100
0000
0010
0100
0001
0000
1000
0000
0000
0000
0100
0000
0000
0000
,  // measure 80
0010
0010
0001
0100
,  // measure 81
1000
0000
0000
0001
0010
0100
0001
0010
,  // measure 82
0100
0000
0000
0000
0010
0000
0000
0000
0000
0000
0100
0010
0001
0100
0001
0100
,  // measure 83
1000
0000
0000
0001
1000
0000
0100
0000
,  // measure 84
0010
0000
0010
0000
0001
0100
0001
0100
,  // measure 85
1000
0000
0100
0010
1000
0001
0100
0010
,  // measure 86
0001
0100
0010
0000
0010
0100
0001
0000
0100
0010
0001
0100
0001
0100
1000
0000
,  // measure 87
0100
0001
0100
0000
0010
0100
0001
0000
1000
0000
0000
0000
0100
0000
0000
0000
,  // measure 88
0100
0010
0100
0001
,  // measure 89
0100
0000
0000
0010
0001
1000
0001
0100
,  // measure 90
0010
0000
0000
0000
0100
0000
0001
0000
0000
0000
0100
0001
0100
0001
0100
0010
,  // measure 91
0100
0001
0000
0100
0001
0000
0010
0000
,  // measure 92
0100
0000
0000
0010
0000
0000
0001
0000
,  // measure 93
0000
0010
0000
0001
0100
0000
0010
0000
,  // measure 94
0110
0000
0000
0000
0010
0000
0100
0000
0000
0000
0010
0001
0100
0001
1000
0001
,  // measure 95
0010
0000
0000
0100
0001
0000
1000
0000
,  // measure 96
0100
0010
0100
0101
0010
0100
0101
0010
,  // measure 97
0100
0011
0100
0010
1001
0010
0100
0010
,  // measure 98
1001
0000
0100
0001
0000
0000
0100
0000
,  // measure 99
0000
0100
0000
0010
1001
0000
0100
0000
,  // measure 100
0100
0000
0000
0100
0000
0000
0010
0000
,  // measure 101
0000
0001
0000
0100
1000
0000
0010
0000
,  // measure 102
0101
0000
0100
1000
0000
0100
0001
0000
,  // measure 103
0000
1000
0000
0001
0100
0000
0100
0000
,  // measure 104
0010
0100
0001
1010
0100
0010
0011
0100
,  // measure 105
0001
0101
0010
0001
1100
0001
0100
0010
,  // measure 106
0001
0100
0000
0000
;
