#VERSION:0.83;
#TITLE:big chemistry;
#SUBTITLE:;
#ARTIST:Gregory Dillon, & Frutiger Dillon;
#TITLETRANSLIT:;
#SUBTITLETRANSLIT:;
#ARTISTTRANSLIT:;
#GENRE:;
#ORIGIN:;
#CREDIT:;
#BANNER:;
#BACKGROUND:;
#PREVIEWVID:;
#JACKET:;
#CDIMAGE:;
#DISCIMAGE:;
#LYRICSPATH:;
#CDTITLE:;
#MUSIC:big chemistry.ogg;
#OFFSET:0.000000;
#SAMPLESTART:100.059883;
#SAMPLELENGTH:12.000000;
#SELECTABLE:YES;
#BPMS:0.000=141.000;
#STOPS:;
#DELAYS:;
#WARPS:;
#TIMESIGNATURES:0.000=4=4;
#TICKCOUNTS:0.000=4;
#COMBOS:0.000=1;
#SPEEDS:0.000=1.000=0.000=0;
#SCROLLS:0.000=1.000;
#FAKES:;
#LABELS:0.000=Song Start;
#BGCHANGES:;
#KEYSOUNDS:;
#ATTACKS:
;

//---------------dance-single - ----------------
#NOTEDATA:;
#CHARTNAME:;
#STEPSTYPE:dance-single;
#DESCRIPTION:;
#CHARTSTYLE:;
#DIFFICULTY:Hard;
#METER:11;
#RADARVALUES:0.477331,0.579886,0.099829,0.193785,0.041106,569.000000,552.000000,17.000000,33.000000,0.000000,0.000000,0.000000,0.000000,0.000000,0.477331,0.579886,0.099829,0.193785,0.041106,569.000000,552.000000,17.000000,33.000000,0.000000,0.000000,0.000000,0.000000,0.000000;
#CREDIT:;
#NOTES:
// measure 0
0000
0000
0000
0000
,  // measure 1
0000
0000
0000
0000
,  // measure 2
0000
0000
0000
0000
,  // measure 3
0000
0000
0000
0000
,  // measure 4
0110
0000
0001
0000
0100
0000
0000
0001
,  // measure 5
0000
0100
0000
0010
0000
0001
0100
0010
,  // measure 6
0000
0000
0001
0000
0100
0000
0000
0010
,  // measure 7
0000
0100
0000
0001
0000
0100
0000
1000
,  // measure 8
0200
0000
0000
0000
0300
0010
0001
0200
,  // measure 9
0000
0000
0000
0000
0000
0000
0300
0100
,  // measure 10
0001
0010
0100
0001
1000
0000
0100
0000
,  // measure 11
0000
0000
0100
1000
0001
0000
0100
0000
,  // measure 12
0020
0000
0000
0000
0030
0100
0001
2000
,  // measure 13
0000
0000
0000
0000
0000
3000
0100
0001
,  // measure 14
0010
0100
0010
0100
0001
0000
0100
0000
,  // measure 15
0000
0200
0300
0001
1000
0000
0100
0000
,  // measure 16
0000
0000
0100
0010
0110
0000
0010
0001
,  // measure 17
1001
0000
0010
0001
0100
0000
1000
0100
,  // measure 18
0000
0000
0001
0100
0010
0000
0100
0001
,  // measure 19
0100
0000
0001
0100
0010
0000
0100
0002
,  // measure 20
0000
0003
0100
0010
0100
0001
0100
0010
,  // measure 21
0020
0000
0200
0000
0330
0000
0002
0200
,  // measure 22
0303
0000
0010
0001
0100
0001
0100
0010
,  // measure 23
2002
0000
0000
0000
3003
0010
0100
0001
,  // measure 24
0000
0001
0100
0010
0000
0001
0100
0010
,  // measure 25
0000
0001
1000
0100
0000
0001
0100
0010
,  // measure 26
0110
0000
0100
0001
0010
0000
1000
0000
,  // measure 27
0100
0001
0010
0000
0010
0000
0100
0001
,  // measure 28
0010
1000
0100
0001
0000
0010
0100
0001
,  // measure 29
0000
0001
0100
0010
0000
0001
1000
0100
,  // measure 30
0010
0000
0100
0001
0010
0000
0010
0000
,  // measure 31
1000
0001
0100
0000
0010
0000
0100
0002
,  // measure 32
0000
0000
0000
0000
0003
0000
0110
0110
,  // measure 33
0110
0100
0010
0100
0010
0001
0100
0001
,  // measure 34
0100
0000
0010
0000
0001
0000
0100
0000
0001
0000
0100
0000
0010
0000
1000
0001
,  // measure 35
0100
1000
0100
1000
0100
1000
0100
1000
,  // measure 36
0100
0010
0001
0010
0001
0010
0100
1000
,  // measure 37
0100
1000
0100
1000
0100
0010
0001
0010
,  // measure 38
0001
0000
0100
0000
0010
0000
0100
0000
0001
0000
0100
0000
0010
0000
0100
0001
,  // measure 39
0010
0100
0010
0100
0010
0100
0010
0100
,  // measure 40
1000
0100
0010
0100
0010
0100
0010
0100
,  // measure 41
0010
0100
0010
0100
1000
0100
0010
0001
,  // measure 42
0010
0000
0001
0000
0100
0000
0010
0000
0001
0000
0100
0000
0010
0000
0001
1000
,  // measure 43
0100
0100
0010
0001
0100
0010
0100
0010
,  // measure 44
0100
0001
0100
1000
0100
0100
0100
0100
,  // measure 45
0010
0010
0001
0001
0100
0010
0100
0010
,  // measure 46
0100
0000
1000
0000
0010
0000
0100
0000
0001
0000
0100
0000
0010
0000
0100
0001
,  // measure 47
0010
0100
0010
0100
1000
0100
0010
0001
,  // measure 48
0010
0100
0010
0001
0100
0001
0100
0010
,  // measure 49
2002
0000
0000
0000
3003
0010
0001
0200
,  // measure 50
0000
0000
0000
0000
0000
0000
0300
0010
,  // measure 51
0100
0100
0001
0100
2000
0000
0200
0000
,  // measure 52
3300
0000
0010
0001
0200
0000
2300
0000
,  // measure 53
0002
0000
0000
0000
3003
0100
0001
2000
,  // measure 54
0000
0000
0000
0000
0000
0000
3000
0100
,  // measure 55
0001
0010
0001
0100
0010
0000
0100
0001
,  // measure 56
0010
0001
0100
0001
0100
0000
1000
0000
,  // measure 57
0000
0000
0100
0010
0101
0000
0100
0010
,  // measure 58
0101
0000
0010
0100
0010
0000
0100
0001
,  // measure 59
0000
0000
0001
0100
1000
0000
0010
0100
,  // measure 60
0001
0000
0001
0100
0010
0000
0001
0100
,  // measure 61
0000
0000
0100
0001
0010
0001
0100
0001
,  // measure 62
0020
0000
0200
0000
0330
0000
0001
1000
,  // measure 63
0001
0000
0010
0001
1000
0001
0100
0010
,  // measure 64
0220
0000
0000
0000
0330
0100
0001
1000
,  // measure 65
0000
0010
0001
0100
0100
0010
0001
0100
,  // measure 66
0000
0001
0100
0010
0000
0001
0100
0001
,  // measure 67
0010
0000
0100
0001
0010
0000
0100
0000
,  // measure 68
0001
0000
0100
0000
0001
0000
0000
0000
0100
0000
0000
0001
1000
0000
0000
0100
,  // measure 69
0001
0010
0100
0001
0000
0001
0100
0010
,  // measure 70
0000
1000
0001
0100
0000
0010
0001
0100
,  // measure 71
0100
0000
0010
0001
0100
0000
1000
0000
,  // measure 72
0001
0100
0010
0000
0001
0000
0220
0000
,  // measure 73
0000
0000
0000
0000
0330
0000
0110
0110
,  // measure 74
0110
0010
0001
0100
0010
0001
1000
0001
,  // measure 75
0100
0000
0010
0000
0001
0000
0100
0000
0001
0000
0100
0000
0010
0000
1000
0001
,  // measure 76
0100
0100
0010
0100
1000
0100
0010
0100
,  // measure 77
0010
0100
0010
0001
0100
0001
0100
0010
,  // measure 78
0001
0100
0001
0100
0010
0001
1000
0001
,  // measure 79
0100
0000
0010
0000
0001
0000
0100
0000
0001
0000
0100
0000
0010
0000
1000
0100
,  // measure 80
0001
0010
0100
0001
0100
0010
0001
1000
,  // measure 81
0001
0100
0010
0001
0100
0001
0100
0010
,  // measure 82
0001
0100
0001
0100
0010
0001
1000
0001
,  // measure 83
0100
0000
0010
0000
0001
0000
0100
0000
0001
0000
0100
0000
0010
0000
0100
0001
,  // measure 84
0010
0010
0100
0010
0100
1000
0100
0010
,  // measure 85
0001
0100
0010
0001
0100
0010
0001
0100
,  // measure 86
0001
0100
0010
0001
0100
0001
0100
0010
,  // measure 87
0001
0000
1000
0000
0001
0000
0100
0000
0010
0000
0100
0000
0001
0000
0010
0001
,  // measure 88
0100
0010
0001
1000
0001
0100
0010
0001
,  // measure 89
0100
0001
0100
0010
0001
1000
0001
0100
,  // measure 90
0110
0000
0000
0001
0000
0000
0010
0000
0000
0100
0000
0000
0020
0000
0000
0000
,  // measure 91
0000
0000
0000
0000
0000
0000
0030
0100
,  // measure 92
0001
0000
0000
0100
0000
0000
0010
0000
0000
0001
0000
0000
0020
0000
0000
0000
,  // measure 93
0000
0000
0030
0100
0002
0000
0003
0000
,  // measure 94
0001
0000
0100
0010
0000
0001
0200
0000
,  // measure 95
0000
0000
0000
0000
0000
0000
0300
0001
,  // measure 96
0010
0000
0100
0010
0000
0001
0200
0000
,  // measure 97
0000
0000
0000
0000
,  // measure 98
0000
0000
0000
0300
;
