#TITLE:beauty and the beat;
#SUBTITLE:;
#ARTIST:Justin Beiber & Nicki Minaj;
#TITLETRANSLIT:;
#SUBTITLETRANSLIT:;
#ARTISTTRANSLIT:;
#GENRE:;
#CREDIT:;
#BANNER:;
#BACKGROUND:;
#LYRICSPATH:;
#CDTITLE:;
#MUSIC:Justin Bieber - Beauty And A Beat ft. Nicki Minaj (Official Audio).ogg;
#OFFSET:0.000000;
#SAMPLESTART:100.059883;
#SAMPLELENGTH:12.000000;
#SELECTABLE:YES;
#BPMS:0.000000=128.000000
,320.000000=64.000000
,352.000000=128.000000
;
#STOPS:0.000000=0.700000
;
#BGCHANGES:;
#KEYSOUNDS:;
#ATTACKS:;

//---------------dance-single - ----------------
#NOTES:
     dance-single:
     :
     Hard:
     14:
     0.497616,1.079608,0.254128,0.113920,0.385574,795.000000,737.000000,58.000000,26.000000,0.000000,0.000000,0.497616,1.079608,0.254128,0.113920,0.385574,795.000000,737.000000,58.000000,26.000000,0.000000,0.000000:
// measure 0
0000
0000
0000
0000
,  // measure 1
0000
0000
0000
0000
,  // measure 2
0000
0000
0000
0000
,  // measure 3
0000
0000
0000
0000
,  // measure 4
1000
0001
0100
0010
,  // measure 5
0100
0001
0010
0100
0001
0000
0000
0000
0010
0000
0000
0000
0100
0000
1001
0000
,  // measure 6
0000
2002
0000
0000
0000
0000
0000
0000
,  // measure 7
0000
0000
0000
3003
,  // measure 8
0010
0001
0200
0000
0000
0000
0000
0000
,  // measure 9
0000
0000
0300
0010
0100
0010
0001
0100
,  // measure 10
0001
0100
2000
0000
0000
0000
0000
0000
,  // measure 11
3000
0110
0000
0101
0000
0101
0000
0000
,  // measure 12
0100
0001
0020
0000
0000
0000
0000
0000
,  // measure 13
0000
0000
0030
0100
0010
0001
1000
0001
,  // measure 14
0100
0010
0002
0000
0000
0000
0000
0000
,  // measure 15
0003
0110
0000
1100
0000
0101
0000
0000
,  // measure 16
0110
0001
1000
0100
0001
0100
0001
0100
,  // measure 17
0101
0000
0110
0000
1100
0000
0010
0100
,  // measure 18
0001
0010
0100
0001
1000
0001
0010
0010
,  // measure 19
0110
0000
0101
0000
0110
0000
1000
0100
,  // measure 20
0001
0010
0100
0001
1000
0001
0010
0100
,  // measure 21
0011
0000
0110
0000
1100
0000
0100
0010
,  // measure 22
0100
0001
0100
0010
0010
0001
0100
1000
,  // measure 23
0001
0100
0010
0001
0000
0100
0000
0010
,  // measure 24
0220
0000
0000
0000
,  // measure 25
0000
0000
0000
0000
0330
2000
0000
0002
,  // measure 26
0000
0000
0000
0000
3003
0100
0010
0110
,  // measure 27
0000
1100
0000
0110
0000
0101
0000
0220
,  // measure 28
0000
0000
0000
0000
0330
0001
0100
1010
,  // measure 29
0000
0110
0000
0110
0000
0101
0000
2200
,  // measure 30
0000
0000
0000
0000
,  // measure 31
0000
0000
0000
0000
3300
0100
0000
0010
,  // measure 32
0001
0000
0000
0100
0001
0000
1000
0000
0100
0000
0000
0010
0100
0000
0001
0000
,  // measure 33
0010
0000
0000
0010
0001
0000
0100
0000
0010
0000
0000
0100
0001
0000
0010
0000
,  // measure 34
0010
0000
0000
0001
0100
0000
0010
0000
0100
0000
0000
0010
0001
0000
0100
0000
,  // measure 35
1000
0000
0000
0001
0100
0000
0010
0000
0100
0000
0000
0010
0100
0000
0001
0000
,  // measure 36
0100
0000
0000
1000
0001
0000
0100
0000
0010
0000
0000
0001
0100
0000
0000
0000
,  // measure 37
1000
0000
0000
0001
0100
0000
0010
0000
0100
0000
0000
0010
0001
0000
1000
0000
,  // measure 38
0100
0000
0000
0010
0001
0000
0010
0000
0100
0000
0000
0010
0001
0000
1000
0000
,  // measure 39
0100
0000
0000
0100
0010
0000
0001
0000
0100
0000
0000
0010
0001
0000
0100
0000
,  // measure 40
0010
0000
0001
0000
0100
0000
0010
0000
0010
0000
0100
0001
0000
1000
0100
0000
,  // measure 41
0010
0000
0001
0000
0100
0000
0010
0000
0100
0000
0010
0100
0000
0001
1000
0000
,  // measure 42
0010
0000
0001
0000
0100
0000
0010
0000
0001
0000
0100
0010
0000
0100
0001
0000
,  // measure 43
0010
0000
0001
0000
0100
0000
0010
0000
0100
1000
0100
0001
0100
0001
0010
0100
,  // measure 44
0001
0000
0010
0000
0100
0000
0010
0000
0100
0000
0010
0100
0000
1000
0010
0000
,  // measure 45
0001
0000
1000
0000
0001
0000
0100
0000
0010
0000
0000
0000
0010
0100
0001
0100
,  // measure 46
1000
0000
0100
0000
0001
0000
0010
0000
0100
0000
0010
0001
0000
0100
0001
0000
,  // measure 47
0010
0001
0100
0010
0001
0000
0100
0000
,  // measure 48
0001
0100
2000
0000
0000
0000
0000
0000
,  // measure 49
0000
0000
3000
0010
1000
0001
0100
0010
,  // measure 50
0001
1000
0200
0000
0000
0000
0300
0010
,  // measure 51
0000
0101
0000
0110
0000
1001
0000
0000
,  // measure 52
0001
0100
2000
0000
0000
0000
0000
0000
,  // measure 53
0000
0000
3000
0100
0001
0010
0100
0001
,  // measure 54
0010
0100
0002
0000
0000
0000
0003
0100
,  // measure 55
0000
0101
0000
1100
0000
0110
0000
0000
,  // measure 56
0001
0100
0010
0001
1000
0001
0100
0010
,  // measure 57
0101
0000
0101
0000
0110
0000
0100
0001
,  // measure 58
0010
0001
0100
0010
0100
0001
0100
1000
,  // measure 59
0110
0000
0110
0000
0101
0000
0100
1000
,  // measure 60
0010
0100
0010
0001
0100
0001
0100
0010
,  // measure 61
1100
0000
0110
0000
0101
0000
0100
1000
,  // measure 62
0010
0001
0100
0001
1000
0100
0010
0001
,  // measure 63
0100
0001
0100
1000
0000
0100
0000
0010
,  // measure 64
0220
0000
0000
0000
,  // measure 65
0000
0000
0000
0000
0330
0020
0000
0200
,  // measure 66
0000
0000
0000
0000
0330
0001
0100
1000
,  // measure 67
0000
1010
0000
0011
0000
0101
0000
0220
,  // measure 68
0000
0000
0000
0000
0330
0010
0001
0101
,  // measure 69
0000
0101
0000
0101
0000
0101
0000
2002
,  // measure 70
0000
0000
0000
0000
,  // measure 71
0000
0000
0000
0000
3003
1000
0000
0100
,  // measure 72
0100
0000
0000
0010
0001
0000
0100
0000
0010
0000
0000
0001
0100
0000
0010
0000
,  // measure 73
0100
0000
0000
0001
1000
0000
0100
0000
0001
0000
0000
0010
0100
0000
0001
0000
,  // measure 74
1000
0000
0000
0100
0001
0000
0010
0000
0100
0000
0000
0001
0010
0000
0100
0000
,  // measure 75
0001
0000
0000
1000
0100
0000
0001
0000
0010
0000
0000
0100
0001
0000
0010
0000
,  // measure 76
0001
0000
0000
1000
0100
0000
0001
0000
0010
0000
0000
0100
0001
0000
0010
0000
,  // measure 77
0001
0000
0000
0100
1000
0000
0010
0000
0100
0000
0000
0001
0010
0000
0000
0000
,  // measure 78
0001
0000
0000
0100
1000
0000
0001
0000
0100
0000
0000
0010
0001
0000
0100
0000
,  // measure 79
0010
0000
0000
0100
0001
0000
0010
0000
0001
0000
0100
0010
0001
0100
0001
0100
,  // measure 80
1000
0000
0000
0000
0000
0000
0000
0000
0000
0000
0000
0000
0000
0000
0000
0000
0100
0000
0000
0000
0000
0000
0000
0000
0000
0000
0000
0000
0000
0000
0000
0000
0000
0000
0000
0000
0000
0000
0000
0000
0000
0000
0000
0000
0000
0000
0000
0000
0001
0000
0000
0000
0000
0000
0000
0000
0000
0000
0000
0000
0000
0000
0000
0000
0010
0000
0000
0000
0000
0000
0000
0000
0000
0000
0000
0000
0000
0000
0000
0000
0000
0000
0000
0000
0100
0000
0000
0000
0000
0000
0001
0000
0000
0000
0000
0000
0010
0000
0000
0000
0000
0000
0100
0000
0000
0000
0000
0000
0001
0000
0000
0000
0000
0000
1000
0000
0000
0000
0000
0000
0100
0000
0000
0000
0000
0000
0001
0000
0000
0000
0000
0000
0010
0000
0000
0000
0000
0000
0100
0000
0000
0000
0000
0000
0001
0000
0000
0000
0000
0000
0000
0000
0000
0000
0000
0000
0000
0000
0000
0000
0010
0000
0000
0000
0000
0000
0000
0000
0000
0000
0000
0000
0000
0000
0000
0000
0000
0000
0000
0000
0000
0000
0000
0000
0000
0000
0000
0000
0000
0000
0000
0000
,  // measure 81
0010
0000
0000
0000
0000
0000
0000
0000
0000
0000
0000
0000
0000
0000
0000
0000
0100
0000
0000
0000
0000
0000
0000
0000
0000
0000
0000
0000
0000
0000
0000
0000
0000
0000
0000
0000
0100
0000
0000
0000
0000
0000
0001
0000
0000
0000
0000
0000
0010
0000
0000
0000
0000
0000
0000
0000
0000
0000
0000
0000
0000
0000
0000
0000
0100
0000
0000
0000
0000
0000
0000
0000
0000
0000
0000
0000
0000
0000
0000
0000
0000
0000
0000
0000
0000
0000
0000
0000
0000
0000
0000
0000
0000
0000
0000
0000
0010
0000
0000
0000
0000
0000
0000
0000
0000
0000
0000
0000
0100
0000
0000
0000
0000
0000
0001
0000
0000
0000
0000
0000
1000
0000
0000
0000
0000
0000
0001
0000
0000
0000
0000
0000
0010
0000
0000
0000
0000
0000
0100
0000
0000
0000
0000
0000
0001
0000
0000
0000
0000
0000
0000
0000
0000
0000
0000
0000
0000
0000
0000
0000
1000
0000
0000
0000
0000
0000
0000
0000
0000
0000
0000
0000
0000
0000
0000
0000
0000
0000
0000
0000
0000
0000
0000
0000
0000
0000
0000
0000
0000
0000
0000
0000
,  // measure 82
0100
0000
0000
0000
0000
0000
0000
0000
0000
0000
0000
0000
0000
0000
0000
0000
0010
0000
0000
0000
0000
0000
0000
0000
0000
0000
0000
0000
0000
0000
0000
0000
0000
0000
0000
0000
0000
0000
0000
0000
0000
0000
0000
0000
0000
0000
0000
0000
0100
0000
0000
0000
0000
0000
0000
0000
0000
0000
0000
0000
0000
0000
0000
0000
0001
0000
0000
0000
0000
0000
0000
0000
0000
0000
0000
0000
0000
0000
0000
0000
0000
0000
0000
0000
0000
0000
0000
0000
0000
0000
0000
0000
0000
0000
0000
0000
0010
0000
0000
0000
0000
0000
0100
0000
0000
0000
0000
0000
0001
0000
0000
0000
0000
0000
1000
0000
0000
0000
0000
0000
0001
0000
0000
0000
0000
0000
0010
0000
0000
0000
0000
0000
0100
0000
0000
0000
0000
0000
0001
0000
0000
0000
0000
0000
0010
0000
0000
0000
0000
0000
0000
0000
0000
0000
0000
0000
0000
0000
0000
0000
0100
0000
0000
0000
0000
0000
0000
0000
0000
0000
0000
0000
0000
0000
0000
0000
0000
0000
0000
0000
0000
0000
0000
0000
0000
0000
0000
0000
0000
0000
0000
0000
,  // measure 83
0010
0000
0000
0000
0000
0000
0000
0000
0000
0000
0000
0000
0000
0000
0000
0000
0001
0000
0000
0000
0000
0000
0000
0000
0000
0000
0000
0000
0000
0000
0000
0000
0000
0000
0000
0000
0000
0000
0000
0000
0000
0000
0000
0000
0000
0000
0000
0000
0100
0000
0000
0000
0000
0000
0000
0000
0000
0000
0000
0000
0000
0000
0000
0000
0010
0000
0000
0000
0000
0000
0000
0000
0000
0000
0000
0000
0000
0000
0000
0000
0000
0000
0000
0000
0001
0000
0000
0000
0000
0000
0100
0000
0000
0000
0000
0000
0010
0000
0000
0000
0000
0000
0001
0000
0000
0000
0000
0000
0100
0000
0000
0000
0000
0000
0010
0000
0000
0000
0000
0000
0001
0000
0000
0000
0000
0000
1000
0000
0000
0000
0000
0000
0001
0000
0000
0000
0000
0000
0100
0000
0000
0000
0000
0000
1000
0000
0000
0000
0000
0000
0000
0000
0000
0000
0000
0000
0000
0000
0000
0000
0010
0000
0000
0000
0000
0000
0000
0000
0000
0000
0000
0000
0000
0000
0000
0000
0000
0000
0000
0000
0110
0000
0000
0000
0000
0000
0000
0000
0000
0000
0000
0000
,  // measure 84
0001
0000
0000
0000
0010
0100
0001
1000
0001
0000
0000
0000
0100
0010
0001
1000
0100
0000
0000
0000
0100
0010
0001
0100
0010
0100
0001
1000
0100
0000
0000
0000
,  // measure 85
1001
0000
0000
0000
0010
0100
0001
1000
0001
0000
0000
0000
0010
0100
0001
1000
0001
0000
0000
0000
0010
0100
0001
1000
0001
0010
0100
0001
0010
0000
0000
0000
,  // measure 86
0001
0100
1000
0000
0000
0000
0010
0100
0000
0000
0000
0010
0001
1000
0001
0100
,  // measure 87
1000
0010
0100
0001
0000
0000
1000
0001
0000
0000
0000
0000
0000
0100
0000
0010
,  // measure 88
0100
0000
0000
0010
0100
0000
0001
0000
0010
0000
0000
0100
1000
0000
0001
0000
,  // measure 89
0010
0000
0000
0100
0001
0000
0010
0000
0100
0000
0000
0001
1000
0000
0100
0000
,  // measure 90
0010
0000
0000
0100
0001
0000
0010
0000
0100
0000
0000
0001
1000
0000
0100
0000
,  // measure 91
0001
0000
0000
0010
0100
0000
0001
0000
1000
0000
0000
0100
0001
0000
0010
0000
,  // measure 92
0100
0000
0000
0001
0010
0000
0100
0000
0001
0000
0000
1000
0100
0000
0001
0000
,  // measure 93
0010
0000
0000
0100
0001
0000
1000
0000
0100
0000
0000
0001
0010
0000
0100
0000
,  // measure 94
0001
0000
0000
1000
0100
0000
0001
0000
0010
0000
0000
0100
0001
0000
0010
0000
,  // measure 95
0100
0000
0000
1000
0001
0000
0100
0000
0010
0000
0000
0001
0100
0000
1000
0000
,  // measure 96
0010
0000
0000
0100
0001
0000
0010
0000
0100
0000
0000
0001
0010
0000
0100
0000
,  // measure 97
1000
0000
0000
0100
0001
0000
0010
0000
0100
0000
0000
0001
0010
0000
0100
0000
,  // measure 98
0001
0000
0000
1000
0100
0000
0001
0000
0010
0000
0000
0100
0001
0000
0010
0000
,  // measure 99
0001
0000
0000
1000
0100
0000
0001
0000
0010
0000
0000
0100
0001
0000
0010
0000
,  // measure 100
1000
0000
0000
0100
0001
0000
0010
0000
0100
0000
0000
0010
0100
0000
0001
0000
,  // measure 101
1000
0000
0000
0100
0001
0000
0100
0000
0010
0000
0000
0001
0100
0000
1000
0000
,  // measure 102
0100
0000
0000
0010
0001
0000
0100
0000
0010
0000
0000
0001
1000
0000
0100
0000
,  // measure 103
0010
0000
0000
0001
0100
0000
0010
0000
0001
0000
0000
0100
0010
0000
1001
0000
,  // measure 104
0010
0000
0001
0000
0100
0000
0010
0000
0100
0000
0010
0001
0000
1000
0100
0000
,  // measure 105
0010
0000
0001
0000
0100
0000
0010
0000
0100
0000
0010
0001
0000
1000
0100
0000
,  // measure 106
0010
0000
0001
0000
0100
0000
1000
0000
0001
0000
0100
0010
0000
0100
0001
0000
,  // measure 107
0001
0000
1000
0000
0001
0000
0100
0000
0010
0001
0100
0010
0100
0001
0100
1000
,  // measure 108
0010
0000
0001
0000
0100
0000
1000
0000
0001
0000
0100
0010
0000
0100
0001
0000
,  // measure 109
0001
0000
1000
0000
0001
0000
0100
0000
0010
0000
0000
0000
0001
1000
0001
0100
,  // measure 110
1000
0000
0100
0000
0010
0000
0100
0000
0010
0000
0010
0001
0000
0100
0001
0000
,  // measure 111
0010
0001
0100
0010
0100
0000
0010
0000
,  // measure 112
0110
0000
0000
0000
;
