#TITLE:bad desire;
#SUBTITLE:(with or without you);
#ARTIST:ENHYPEN;
#TITLETRANSLIT:;
#SUBTITLETRANSLIT:;
#ARTISTTRANSLIT:;
#GENRE:;
#CREDIT:;
#BANNER:;
#BACKGROUND:;
#LYRICSPATH:;
#CDTITLE:;
#MUSIC:Bad Desire (With or Without You) (English Ver.).ogg;
#OFFSET:0.000000;
#SAMPLESTART:100.059883;
#SAMPLELENGTH:12.000000;
#SELECTABLE:YES;
#BPMS:0.000000=78.000000
;
#STOPS:0.000000=1.500000
;
#BGCHANGES:;
#KEYSOUNDS:;
#ATTACKS:;

//---------------dance-single - ----------------
#NOTES:
     dance-single:
     :
     Hard:
     11:
     0.353246,0.495248,0.000000,0.070448,0.619941,351.000000,351.000000,0.000000,10.000000,0.000000,0.000000,0.353246,0.495248,0.000000,0.070448,0.619941,351.000000,351.000000,0.000000,10.000000,0.000000,0.000000:
// measure 0
0000
0000
0000
0000
,  // measure 1
0000
0000
0000
0000
,  // measure 2
0000
0000
0000
0000
,  // measure 3
0000
0000
0000
0000
,  // measure 4
1000
0100
0001
0000
0010
0100
0001
1000
0100
0010
0100
0000
0000
0100
1000
0001
,  // measure 5
0000
1000
0000
0000
0000
0100
0010
0001
0000
0100
0000
0010
0000
0001
0000
0100
,  // measure 6
0000
0000
0000
0000
0010
0100
1000
0001
0000
0100
0000
0000
0000
0001
0100
0010
,  // measure 7
0000
0001
0000
0000
0000
0010
0001
0100
0000
0010
0000
0001
0100
1000
0010
0100
,  // measure 8
0001
0000
0010
0000
0100
0000
0010
0000
0001
0100
0000
0000
0001
0100
0001
0100
,  // measure 9
0010
0000
0100
0000
0001
0000
0100
0000
1000
0000
0000
0000
0010
0001
1000
0001
,  // measure 10
0100
0000
0001
0000
0100
0000
0010
0000
0001
0100
0000
0000
0100
0010
0001
0100
,  // measure 11
0010
0000
0100
0000
0001
0000
0100
0000
1000
0000
0100
0001
0010
0100
0000
0001
,  // measure 12
0000
0000
0000
0000
0000
1000
0100
0001
0000
0100
0010
0100
0010
0100
0001
0100
,  // measure 13
1000
0100
0000
0000
0000
0000
0000
0000
0000
0100
0010
0100
0001
0100
0000
1000
,  // measure 14
0000
0000
0000
0000
0000
1000
0100
0001
0000
0010
0100
0001
0010
0100
0010
0100
,  // measure 15
1000
0002
0000
0000
0000
0000
0000
0000
0003
1000
0100
0001
0010
0000
0100
0000
,  // measure 16
0020
0000
0000
0030
,  // measure 17
2000
0000
0000
0000
0000
0000
0000
0000
3000
0000
0001
0010
0100
0001
0000
2000
,  // measure 18
0000
0000
0000
0000
3000
0100
0001
0010
0000
0100
0000
0001
0010
0100
0010
0100
,  // measure 19
1000
0000
0000
0000
0000
0000
0001
0100
0000
0010
0000
0100
0000
0001
0000
0010
,  // measure 20
0000
0010
0001
0100
1000
0000
0100
0010
0001
0100
0010
0001
1000
0001
0100
0000
,  // measure 21
0100
0000
0010
0100
0001
0000
0010
0000
0100
0000
0010
0000
0100
0000
0001
0000
0100
0000
0010
0001
1000
0000
0100
0000
0001
0000
1000
0000
0100
0000
0000
0000
,  // measure 22
0000
0010
0001
0100
0010
0001
1000
0001
0100
0010
0001
0100
0001
0100
2000
0000
,  // measure 23
0000
0000
0000
0000
0000
0000
0020
0000
0000
0000
3030
0000
0100
0001
0100
0001
,  // measure 24
0010
0000
0010
0000
0100
0000
0001
0000
0100
1000
0000
0000
0100
0010
0001
0100
,  // measure 25
1000
0000
0010
0000
0100
0000
0001
0000
0100
0000
0000
0000
0100
0010
0001
0100
,  // measure 26
1000
0000
0010
0000
0100
0000
0001
0000
0100
1000
0000
0100
0010
0100
0001
0100
,  // measure 27
1000
0000
0010
0000
0001
0000
0100
0000
1000
0000
0010
0001
0100
1000
0000
0010
,  // measure 28
0000
0000
0000
0000
0000
0100
0001
0010
0000
0100
0010
0100
0001
0100
0010
1000
,  // measure 29
0000
0001
0000
0000
0000
0000
0000
0000
0000
0000
0100
0001
0100
1000
0000
0100
,  // measure 30
0000
0000
0000
0000
0000
0001
1000
0100
0000
0010
0100
0001
0010
0010
0100
1000
,  // measure 31
0000
0100
0000
0000
0000
0000
0000
0000
0000
0000
0100
0001
0100
0000
0010
0000
,  // measure 32
0200
0000
0000
0300
,  // measure 33
0020
0000
0000
0000
0000
0000
0000
0000
0030
0000
0010
0001
0100
1000
0000
0100
,  // measure 34
0000
0000
0000
0000
0000
0001
0100
1000
0000
0100
0000
0001
0010
0010
0001
0100
,  // measure 35
1000
0000
0000
0000
0000
0000
1000
0100
0000
0001
0000
0100
0000
0010
0000
0001
,  // measure 36
0010
0100
0001
0000
0100
0000
1000
0000
0001
0100
0010
0000
0001
0000
0100
0010
,  // measure 37
0001
0000
0000
0100
0000
0000
1000
0000
0000
0000
0000
0000
0100
0000
0000
0000
0001
0000
0000
0000
0000
1000
0000
0000
0000
0000
0000
0100
0000
0000
0000
0000
0000
0010
0000
0000
0000
0000
0000
0100
0000
0000
0000
0000
0000
0010
0000
0000
,  // measure 38
0100
0001
0010
0000
0010
0000
0001
0100
0010
0100
0001
1000
0100
0000
0010
0001
,  // measure 39
0010
0000
0000
0001
0000
0000
0100
0000
0000
0001
0000
0000
0010
0000
0000
0000
0100
0000
0000
0000
0000
0001
0000
0000
0000
0000
0000
0100
0000
0000
0000
0000
0000
0010
0000
0000
0000
0000
0000
0001
0000
0000
0000
0000
0000
0100
0000
0000
,  // measure 40
0020
0000
0000
0030
,  // measure 41
0200
0000
0000
0000
0000
0000
0000
0000
0300
0000
0100
0001
0010
0100
0000
0001
,  // measure 42
0000
0000
0000
0000
1000
0100
0001
0010
0000
0100
0100
0010
0001
0100
1000
0100
,  // measure 43
0010
0010
0001
0000
0000
0000
0100
1000
0000
0100
0000
0010
0000
0001
0000
1000
;
