#VERSION:0.83;
#TITLE:back to you;
#SUBTITLE:;
#ARTIST:Sicknote;
#TITLETRANSLIT:;
#SUBTITLETRANSLIT:;
#ARTISTTRANSLIT:;
#GENRE:;
#ORIGIN:;
#CREDIT:;
#BANNER:;
#BACKGROUND:;
#PREVIEWVID:;
#JACKET:;
#CDIMAGE:;
#DISCIMAGE:;
#LYRICSPATH:;
#CDTITLE:;
#MUSIC:sicknote - Back To U (Theme From sicknote) (Official Audio).ogg;
#OFFSET:0.000000;
#SAMPLESTART:100.059883;
#SAMPLELENGTH:12.000000;
#SELECTABLE:YES;
#BPMS:0.000=110.000;
#STOPS:0.000=0.100;
#DELAYS:;
#WARPS:;
#TIMESIGNATURES:0.000=4=4;
#TICKCOUNTS:0.000=4;
#COMBOS:0.000=1;
#SPEEDS:0.000=1.000=0.000=0;
#SCROLLS:0.000=1.000;
#FAKES:;
#LABELS:0.000=Song Start;
#BGCHANGES:;
#KEYSOUNDS:;
#ATTACKS:
;

//---------------dance-single - ----------------
#NOTEDATA:;
#CHARTNAME:;
#STEPSTYPE:dance-single;
#DESCRIPTION:;
#CHARTSTYLE:;
#DIFFICULTY:Hard;
#METER:13;
#RADARVALUES:0.475292,0.761214,0.121228,0.022450,0.316541,741.000000,714.000000,27.000000,5.000000,0.000000,0.000000,0.000000,0.000000,0.000000,0.475292,0.761214,0.121228,0.022450,0.316541,741.000000,714.000000,27.000000,5.000000,0.000000,0.000000,0.000000,0.000000,0.000000;
#CREDIT:;
#NOTES:
// measure 0
0000
0000
0000
0000
,  // measure 1
0000
0000
0000
0000
,  // measure 2
0000
0000
0000
0000
,  // measure 3
0000
0000
0010
0000
0100
0001
1000
0001
,  // measure 4
0010
0100
0010
0100
0001
0100
0001
0100
,  // measure 5
0000
0000
0100
0001
0010
0000
0100
0000
,  // measure 6
0001
0000
0100
0010
0000
0100
0000
0100
,  // measure 7
0000
0010
0000
0100
0000
0001
0000
0100
,  // measure 8
0000
0001
0000
0100
0000
0000
0000
0000
,  // measure 9
0010
0000
0001
0100
0001
0000
0100
0000
,  // measure 10
0001
0100
0010
0000
0001
0100
1000
0000
,  // measure 11
0000
0000
0010
0001
0100
0000
0010
0000
,  // measure 12
0001
0100
1000
0000
0010
0001
0100
0001
,  // measure 13
0010
0000
0001
0100
0010
0000
0100
0001
,  // measure 14
0010
0001
0000
0100
0000
0010
0000
0001
,  // measure 15
0000
0100
0000
1000
0000
0001
0000
0100
,  // measure 16
0010
0001
0100
0001
0100
0010
1001
0000
,  // measure 17
0110
0000
0001
0100
0000
0010
0000
0001
,  // measure 18
0000
0100
0000
0010
0000
0001
0000
0100
,  // measure 19
0000
0000
0001
0100
1000
0000
0000
0001
,  // measure 20
0000
0100
0000
0010
0000
0001
0000
0100
,  // measure 21
0110
0000
0001
0100
1000
0000
0010
0001
,  // measure 22
0000
0100
0000
0010
0000
0001
0000
0100
,  // measure 23
0000
0000
0100
0001
0100
0010
0000
0100
,  // measure 24
0010
0100
0010
0001
1000
0000
0100
0001
0100
0010
0001
0100
0001
0000
0100
0000
,  // measure 25
0101
0000
0100
0000
0010
0000
0001
0100
0010
0001
0100
0000
0010
0000
1000
0000
,  // measure 26
0010
0000
0001
0000
0100
0000
0001
0010
0100
1000
0010
0000
0001
0000
0100
0000
,  // measure 27
1000
0000
0100
0000
0010
0000
0100
0001
0010
0100
0001
0000
1000
0000
0100
0000
,  // measure 28
0001
0000
0010
0000
0100
0000
0010
0100
0001
1000
0001
0000
0010
0000
0100
0000
,  // measure 29
0001
0000
0100
0000
0010
0000
0100
0001
0100
0001
0010
0000
0100
0000
0001
0000
,  // measure 30
0001
0000
0100
0000
0010
0000
1000
0100
0001
0010
0100
0000
0100
0000
0010
0000
,  // measure 31
0100
0000
0001
0000
0100
0000
0010
0100
0001
0100
1000
0000
0100
0000
0010
0000
,  // measure 32
0100
0000
0001
0000
0100
0000
0010
0100
0001
0100
1000
0000
0010
0000
0100
0001
,  // measure 33
0020
0000
0000
0000
,  // measure 34
0200
0000
0000
0000
,  // measure 35
0330
0000
0001
0000
0100
0000
0100
0001
,  // measure 36
0000
0010
0100
0000
0001
0010
0100
1000
,  // measure 37
0000
0000
0001
0000
0100
0000
0010
0001
,  // measure 38
0000
0000
0100
0010
0100
0001
0000
0100
,  // measure 39
0010
0001
0100
1000
0010
0000
0001
0100
,  // measure 40
0001
0100
1000
0000
0000
0001
0100
0010
,  // measure 41
0000
0100
0001
1000
0000
0001
0100
0010
,  // measure 42
0000
0001
0100
1000
0001
0100
0000
0010
,  // measure 43
0000
0000
1000
0001
0100
0000
0010
0000
,  // measure 44
0001
0100
0010
0000
0001
0100
1000
0000
,  // measure 45
0000
0000
0010
0001
0100
0000
0010
0001
,  // measure 46
0100
0100
0010
0000
0001
0100
1000
0001
,  // measure 47
0100
0000
0100
0000
0010
0000
0001
0100
,  // measure 48
0000
0001
0000
0100
0000
0010
0000
0100
,  // measure 49
0000
0010
0000
0001
0000
0100
0000
1000
,  // measure 50
0202
0000
0303
0101
,  // measure 51
0101
0000
0100
1000
0000
0001
0000
0100
,  // measure 52
0000
0010
0000
0001
0000
1000
0000
0100
,  // measure 53
0000
0000
0001
1000
0001
0000
0100
0001
,  // measure 54
0000
0100
0000
1000
0000
0001
0000
0100
,  // measure 55
0000
0000
0010
0001
1000
0000
0010
0100
,  // measure 56
0000
0100
0000
0010
0000
0001
0000
0100
,  // measure 57
0000
0000
0010
0001
0100
1000
0000
0100
,  // measure 58
0010
0100
0001
0010
0100
0000
0001
0010
0100
0010
0100
0000
1000
0100
0001
0010
,  // measure 59
0100
0001
0010
0001
0100
0000
0001
1000
0100
0001
0100
0000
0010
0000
0100
0000
,  // measure 60
0001
0100
1000
0010
0100
0000
0001
0010
0100
0001
0100
0000
0010
0000
0100
0000
,  // measure 61
0001
0100
1000
0010
0100
0000
0001
0010
0100
0001
1000
0000
0010
0000
0100
0000
,  // measure 62
0010
0100
0001
0100
0010
0000
0001
1000
0001
0100
0010
0000
0001
0000
0100
0000
,  // measure 63
0100
0001
1000
0100
0001
0000
0100
0010
0010
0100
0001
0000
0010
0000
0100
0000
,  // measure 64
0010
0001
1000
0001
0100
0000
0010
0001
0100
0001
0010
0000
1000
0000
0100
0000
,  // measure 65
0010
0001
1000
0001
0100
0000
0010
0100
0001
0100
1000
0000
0100
0000
0010
0000
,  // measure 66
0010
0001
1000
0001
0100
0000
0010
0001
1000
0001
0100
0000
0010
0000
1000
0001
,  // measure 67
0100
0000
0000
0000
0010
0000
0100
0000
0001
1000
0100
0001
0010
0000
0010
0000
,  // measure 68
0000
0100
0000
0001
0000
0100
0000
0000
,  // measure 69
0000
0000
0001
0100
1000
0000
0001
0100
,  // measure 70
0000
0010
0000
0001
0000
1000
0000
0010
,  // measure 71
0000
0100
0001
1000
0010
0000
0100
0010
,  // measure 72
0000
0001
0000
0100
0000
0010
0000
0100
,  // measure 73
0000
0010
0000
0001
0000
0100
0000
1000
,  // measure 74
0000
0001
0000
0100
0000
0010
0000
1000
,  // measure 75
0001
0000
0001
0100
0000
1000
0000
0001
,  // measure 76
0000
0100
0000
0010
0000
0010
0101
0001
,  // measure 77
1001
0000
0001
1000
0100
0000
0010
0001
,  // measure 78
0000
0100
0000
1000
0000
0001
0000
0100
,  // measure 79
0110
0000
0001
0100
1000
0010
0100
0001
,  // measure 80
0000
0100
0000
0010
0000
0001
0000
0100
,  // measure 81
0000
0000
0100
0001
1000
0001
0000
0010
,  // measure 82
1000
0100
0001
0100
0001
0000
0100
0010
0001
1000
0100
0000
0001
0000
0010
0000
,  // measure 83
1001
0010
0100
0010
0101
0001
0100
0010
,  // measure 84
1001
0000
0001
0000
0100
0000
0010
0000
1001
0000
0010
0000
0100
0010
0100
0001
,  // measure 85
0100
0110
0110
0110
0110
0001
1000
0001
,  // measure 86
0110
0000
0001
0000
0100
0000
0010
0000
1001
0000
0010
0000
0001
0100
1000
0100
,  // measure 87
0001
0010
0100
0010
1001
0010
0100
0010
,  // measure 88
0110
0000
0001
0000
0100
0000
0010
0000
0110
0000
0010
0000
0010
0100
0001
0100
,  // measure 89
1000
0101
0101
0101
0101
1000
0100
0001
,  // measure 90
0100
0010
0100
0001
1000
0000
0010
0001
0100
0001
1000
0000
0010
0000
0100
0000
,  // measure 91
0010
0100
0001
1000
0001
0010
0100
0001
1000
0001
0010
0100
0001
0100
0001
0010
,  // measure 92
0100
0001
1000
0001
0010
0100
0001
1000
0001
0010
0100
0001
1000
0001
0010
0100
,  // measure 93
0001
1000
0001
0010
0100
0001
1000
0001
0010
0100
0001
0100
0001
0010
0100
0001
,  // measure 94
1000
0010
0100
0010
0100
0010
0100
0010
0100
0001
0100
0010
0100
0001
0100
0010
,  // measure 95
0100
1000
0100
0010
0100
0010
0100
0001
0100
0010
0100
1000
0100
0010
0100
0001
,  // measure 96
0100
0010
0100
1000
0100
0010
1000
0010
0100
0010
0100
0100
0010
0100
0010
0100
,  // measure 97
0001
0100
0010
0100
1000
0100
0010
0100
0001
0010
0100
1000
0010
0100
0010
0100
,  // measure 98
0010
0100
0010
0100
1000
0100
0010
0100
0010
0100
0001
0100
0010
0100
0001
0100
,  // measure 99
2000
0000
0000
0000
,  // measure 100
0000
0000
0000
0000
,  // measure 101
0000
0000
0000
0000
,  // measure 102
0000
0000
0000
3000
;
