#TITLE:back to the 305;
#SUBTITLE:;
#ARTIST:Omar+ & Luke Dean;
#TITLETRANSLIT:;
#SUBTITLETRANSLIT:;
#ARTISTTRANSLIT:;
#GENRE:;
#CREDIT:;
#BANNER:;
#BACKGROUND:;
#LYRICSPATH:;
#CDTITLE:;
#MUSIC:Omar & Luke Dean - Back to the 305 (Official Visualiser).ogg;
#OFFSET:0.000000;
#SAMPLESTART:100.059883;
#SAMPLELENGTH:12.000000;
#SELECTABLE:YES;
#BPMS:0.000000=130.000000
;
#STOPS:0.000000=0.600000
;
#BGCHANGES:;
#KEYSOUNDS:;
#ATTACKS:;

//---------------dance-single - ----------------
#NOTES:
     dance-single:
     :
     Hard:
     14:
     0.635138,0.672782,0.028033,0.000000,0.384046,793.000000,788.000000,5.000000,0.000000,0.000000,0.000000,0.635138,0.672782,0.028033,0.000000,0.384046,793.000000,788.000000,5.000000,0.000000,0.000000,0.000000:
// measure 0
0000
0000
0000
0000
,  // measure 1
0000
0000
0000
0000
,  // measure 2
0100
0000
0010
0000
0000
0000
0100
0010
0000
0000
0001
0000
0100
0000
0010
0000
,  // measure 3
0000
0001
0100
0001
0000
1000
0001
0100
,  // measure 4
0100
0000
0010
0000
0000
0000
0100
0001
0000
0000
0010
0000
0001
0000
0100
0000
,  // measure 5
0000
0000
0100
0000
0010
0000
1000
0100
0001
0000
0100
0010
0000
0000
0000
0000
,  // measure 6
0010
0000
0100
0000
0000
0000
0001
0010
0000
0000
0001
0000
0100
0000
0000
0000
,  // measure 7
0100
0000
0000
0010
0000
0000
0001
0000
0010
0000
0100
0000
0010
0000
1000
0001
,  // measure 8
0100
0010
0100
0001
1000
0001
0010
0100
,  // measure 9
0001
0000
1000
0000
0001
0000
0010
0001
0100
0000
0100
0000
0010
0000
0001
1000
,  // measure 10
0100
0100
0010
0100
0001
0100
0010
0001
,  // measure 11
1000
0000
0001
0000
0100
0000
0010
0100
0001
0000
0100
0000
0010
0000
0100
0001
,  // measure 12
0010
0010
0100
0010
0100
0010
0001
0100
,  // measure 13
0001
0000
0100
0000
0010
0000
0001
1000
0100
0000
0100
0000
0010
0000
0100
0001
,  // measure 14
0010
0100
0001
0100
0001
0100
0010
0001
,  // measure 15
1000
0001
0100
0010
0001
0100
0001
0100
,  // measure 16
1000
0010
0100
0010
0100
0010
0100
0010
,  // measure 17
0001
1000
0100
0010
0100
0001
0100
0010
,  // measure 18
0100
0100
0010
0100
0010
0100
1000
0100
,  // measure 19
0010
0100
0010
0100
0010
0100
1000
0100
,  // measure 20
0010
0100
0010
0100
1000
0100
0010
0010
,  // measure 21
0010
0010
0100
0010
0010
1000
0010
0100
,  // measure 22
0001
0100
0010
0100
1000
0010
0100
0010
,  // measure 23
0001
0000
0000
0000
0100
0000
0010
0001
0100
0001
0000
0010
0000
0000
0001
0000
,  // measure 24
1001
0001
0010
0100
0001
1000
0001
0010
,  // measure 25
0010
1000
0010
0100
0010
0100
0001
0100
,  // measure 26
1000
0000
0010
0000
0100
0000
0010
0001
0100
0000
0010
0100
0001
0000
1000
0000
,  // measure 27
0100
0000
0001
0000
0100
0000
0010
0000
0001
0000
0100
0000
0010
0000
0001
0100
,  // measure 28
1000
0100
0010
0100
0010
0100
0001
0100
,  // measure 29
1000
0100
0010
0001
0100
0010
0001
0100
,  // measure 30
1000
0000
0010
0000
0000
0000
0010
0100
0000
0001
0010
0000
0010
0000
0000
0000
,  // measure 31
0010
0000
0000
0010
0000
0000
0010
0000
0100
0000
0001
1000
0100
0000
0001
0010
,  // measure 32
0100
0010
0100
0001
0000
0010
0100
0000
0000
0000
0000
0000
0000
0000
0010
0000
,  // measure 33
0000
0000
0000
0000
0000
0000
0000
0010
0000
0100
0001
0000
1000
0000
0100
0001
,  // measure 34
0010
0100
0010
0001
0000
0000
0100
0010
0000
0000
0000
0000
0000
0000
1000
0000
,  // measure 35
0000
0000
0000
0000
0100
0000
0010
0000
0000
0100
0001
0000
1000
0000
0100
0001
,  // measure 36
0010
0001
0100
0010
0000
0100
0001
0000
0000
0000
0000
0000
0000
0000
1000
0000
,  // measure 37
0100
0000
0000
0000
1000
0000
0100
0000
0000
0010
0100
0000
0001
0000
0010
0100
,  // measure 38
0001
0010
0100
0001
0000
0000
0100
0010
0000
0000
0000
0000
0000
0000
0010
0000
,  // measure 39
0100
0000
0010
0001
0000
0010
0010
0001
,  // measure 40
0100
1000
0000
0000
0000
0000
0000
0001
,  // measure 41
0100
0000
0000
0000
0000
0000
0100
0000
0010
0000
0000
0001
0000
0100
0001
0000
,  // measure 42
0010
0000
0100
0000
0000
0000
0001
0100
0000
0000
0010
0000
0000
0000
0000
0000
,  // measure 43
0000
0000
1001
0000
0000
0000
1001
0000
0000
0100
0001
0000
0010
0000
0100
0000
,  // measure 44
1000
0000
0000
0000
0000
0000
0000
0100
0000
0001
1000
0000
0100
0000
0000
0000
,  // measure 45
0000
0000
0000
0000
0000
0000
0010
0000
0100
0000
0000
0001
0000
0000
0000
0000
,  // measure 46
0000
0000
0000
0000
0000
0000
1000
0100
0000
0001
0010
0000
0001
0000
0000
0000
,  // measure 47
0001
0000
0000
0001
0000
0000
0001
0000
0100
0000
0100
0000
0010
0000
0100
0001
,  // measure 48
1000
0100
0010
0001
0000
0000
0100
0010
0000
0000
0000
0000
0000
0000
0010
0000
,  // measure 49
0000
0000
0000
0000
0000
0000
0000
1000
0000
0100
0001
0000
0010
0000
0100
0001
,  // measure 50
0010
0100
0001
1000
0000
0001
0010
0000
0000
0000
0010
0000
0100
0000
0001
0000
,  // measure 51
0001
0000
0100
0000
0010
0000
0001
0010
0100
0001
0100
0000
0010
0000
0001
0100
,  // measure 52
1000
0010
0100
0001
0010
0100
0001
0000
0100
0000
0010
0000
0100
0000
0010
0000
,  // measure 53
1001
0000
0100
0000
0010
0000
0001
0100
1000
0010
0001
0000
0100
0000
0010
0001
,  // measure 54
0010
0001
0100
0010
0001
0100
1000
0000
0001
0000
0100
0000
0010
0000
0001
0000
,  // measure 55
0100
0000
0010
0100
0001
0000
1000
0000
0001
0010
0100
0010
0010
0100
0001
0100
,  // measure 56
1000
0000
0100
0000
0001
0000
0010
0100
0001
0000
1000
0000
0100
0000
0001
0000
,  // measure 57
0010
0100
0001
1000
0001
0010
0100
0001
,  // measure 58
1000
0000
0001
0000
0010
0000
0100
0001
0010
0000
0010
0000
0100
0000
0010
0000
,  // measure 59
0001
0100
0010
0001
1000
0001
0100
0010
,  // measure 60
0001
0000
0100
0000
0010
0000
1000
0001
0100
0000
0010
0000
0001
0000
0100
0000
,  // measure 61
0010
0001
1000
0001
0100
0010
0001
0100
,  // measure 62
1000
0000
0010
0000
0100
0000
0010
0100
0001
0000
1000
0100
0001
0000
0010
0000
,  // measure 63
0100
0000
0001
0000
0010
0000
0001
0000
0100
0000
0010
0000
0100
0010
0100
0000
,  // measure 64
1000
0000
0010
0000
0100
0000
0001
0010
0100
0000
0010
0000
0001
0000
1000
0000
,  // measure 65
0100
0000
0010
0000
0100
0000
0001
0000
1000
0000
0001
0000
0010
0000
0100
0001
,  // measure 66
0010
0000
0100
0000
0001
0000
1000
0100
0001
0000
0010
0000
0100
0000
0001
0000
,  // measure 67
0010
0000
0100
0000
0010
0000
0100
0000
0010
0000
1000
0100
0001
0000
0100
0000
,  // measure 68
0010
0000
0100
0000
0010
0000
0001
0100
1000
0000
0010
0000
0010
0000
0100
0000
,  // measure 69
0010
0000
0100
0000
0010
0000
0001
1000
0100
0000
0010
0000
0100
0000
0010
0000
,  // measure 70
0001
0000
0100
0000
0010
0000
1000
0001
0100
0010
0100
0000
0001
0000
0010
0000
,  // measure 71
0100
0000
0000
0001
0000
0000
0010
0000
0100
0000
0100
0000
0100
0000
0001
0010
,  // measure 72
0100
0010
0001
1000
0100
0000
0010
0000
0100
0000
0010
0000
1000
0000
0001
0010
,  // measure 73
0100
0000
0010
0000
0100
0000
0010
0100
0001
0010
0100
0000
0010
0000
0100
0010
,  // measure 74
0001
0100
1000
0010
0100
0000
0010
0000
0100
0000
0001
0000
0100
0000
0010
0000
,  // measure 75
1000
0000
0010
0000
0100
0000
0001
0100
0010
0100
0001
0000
0010
0000
0100
0010
,  // measure 76
0100
0010
0100
0001
1000
0000
0100
0000
0010
0000
0100
0000
0010
0000
0001
0100
,  // measure 77
1000
0000
0010
0000
0010
0000
0100
0001
0010
0100
0001
0000
0100
0000
0001
1000
,  // measure 78
0100
0001
0010
0100
0001
0000
0010
0000
1000
0000
0100
0000
1000
0000
0100
0000
,  // measure 79
1000
0000
0000
0000
0100
0000
0010
0000
0001
0000
0000
0100
0000
0000
0001
0000
,  // measure 80
1001
0000
0010
0000
0100
0000
0010
0000
0001
0000
0100
0000
0010
0000
0001
1000
,  // measure 81
0100
0000
0100
0000
0100
0000
0010
0000
1000
0000
0010
0001
0100
0000
0100
0000
,  // measure 82
0010
0000
0100
0000
0100
0000
0010
0000
1000
0000
0010
0000
0100
0000
0010
0001
,  // measure 83
0100
0010
0100
0010
0001
0100
0001
1000
,  // measure 84
0100
0000
0010
0000
0100
0000
0001
0010
0100
0000
0010
0000
0001
0000
1000
0010
,  // measure 85
0100
0000
0010
0000
0001
0000
0100
0000
0010
0000
0001
0100
1000
0000
0100
0000
,  // measure 86
0010
0000
0100
0000
0010
0000
1000
0100
0001
0000
0100
0000
0010
0000
0001
0100
,  // measure 87
1000
0100
0100
0010
0100
0010
0100
0010
,  // measure 88
0001
0000
0100
0000
0010
0000
0001
0100
1000
0000
0100
0000
0010
0000
0001
1000
,  // measure 89
0100
0010
0100
0010
0001
0100
0010
0001
,  // measure 90
1000
0000
0001
0000
0100
0000
0010
0100
1000
0000
0100
0000
0010
0000
0001
1000
,  // measure 91
0100
0010
0100
0010
0100
0010
0001
0100
,  // measure 92
1000
0000
0100
0000
0010
0000
0001
1000
0100
0000
0100
0000
0010
0000
0001
1000
,  // measure 93
0100
0100
0010
0100
0010
0001
0100
0010
,  // measure 94
0001
0000
0100
0000
1000
0000
0100
0010
0001
0000
0100
0000
0010
0000
0001
1000
,  // measure 95
0100
0000
0010
0000
0100
0000
0010
0100
0000
0001
0000
1000
0100
0001
0100
0001
,  // measure 96
0010
0000
0000
0000
;
