#TITLE:baby ima star;
#SUBTITLE:;
#ARTIST:GENIA;
#TITLETRANSLIT:;
#SUBTITLETRANSLIT:;
#ARTISTTRANSLIT:;
#GENRE:;
#CREDIT:;
#BANNER:;
#BACKGROUND:;
#LYRICSPATH:;
#CDTITLE:;
#MUSIC:BABY IMA STAR.ogg;
#OFFSET:0.000000;
#SAMPLESTART:100.059883;
#SAMPLELENGTH:12.000000;
#SELECTABLE:YES;
#BPMS:0.000000=102.000000
;
#STOPS:
;
#BGCHANGES:;
#KEYSOUNDS:;
#ATTACKS:;

//---------------dance-single - ----------------
#NOTES:
     dance-single:
     :
     Hard:
     13:
     0.461032,0.637222,0.041111,0.027407,0.493333,471.000000,465.000000,6.000000,4.000000,0.000000,0.000000,0.461032,0.637222,0.041111,0.027407,0.493333,471.000000,465.000000,6.000000,4.000000,0.000000,0.000000:
// measure 0
0000
0000
0000
0000
,  // measure 1
0000
0000
0000
0000
,  // measure 2
0000
0000
0000
0000
,  // measure 3
0000
0000
0000
0000
0000
0000
0000
0000
0000
0000
1000
0000
0100
0010
0100
0001
,  // measure 4
0100
0000
0000
0001
0100
0000
0000
0000
,  // measure 5
0000
0000
0000
0000
0100
0000
0001
0000
0100
0000
0010
0000
0100
0010
0001
0100
,  // measure 6
1000
0000
0000
0001
0100
0000
0000
0010
,  // measure 7
0000
0000
0100
0001
0010
0000
0100
0000
0010
0100
0001
0000
1000
0100
0001
0100
,  // measure 8
0001
0000
0100
0010
0100
0000
0000
0000
,  // measure 9
0000
0000
0000
0000
0100
0010
0100
0000
0001
0000
0010
0100
0001
1000
0001
0000
,  // measure 10
0010
0100
0001
0010
0100
0000
0000
0100
,  // measure 11
0010
0001
0100
0000
0000
0100
0000
0010
,  // measure 12
0110
0000
0010
0000
0100
0010
0100
0000
0001
1000
0100
0000
0001
0100
0010
0000
,  // measure 13
0000
0000
0100
0010
0100
0001
0010
0000
0100
0001
1000
0001
0010
0100
0001
0000
,  // measure 14
0100
0010
0100
0001
1000
0001
0010
0000
0100
0010
0001
0100
0001
1000
0100
0000
,  // measure 15
0000
0001
0010
0100
0010
0100
0001
0010
0100
0010
0001
0100
0001
0100
1000
0000
,  // measure 16
0001
0100
0001
0100
0010
0001
0100
0001
0100
0010
0001
0100
0001
1000
0100
0000
,  // measure 17
0000
0000
0010
0000
0000
0000
0000
0100
0001
1000
0001
0010
0100
0001
0010
0000
,  // measure 18
0000
0000
0100
0000
0010
0000
0001
1000
0100
0001
0010
0001
1000
0100
0010
0000
,  // measure 19
0000
0000
0000
0000
0001
0000
1000
0000
0001
0000
0100
0001
0010
0100
0001
0000
,  // measure 20
0100
0000
0000
0010
0100
0000
0000
0000
,  // measure 21
0000
0000
0000
0000
0010
0000
0001
0000
0100
0000
0010
0000
0001
0100
0001
0100
,  // measure 22
1000
0000
0000
0010
0001
0000
0000
0100
,  // measure 23
0000
0000
0010
0100
0001
0000
0010
0000
0010
0001
0100
0000
0010
0001
0100
1000
,  // measure 24
0100
0000
0001
0100
1000
0000
0000
0000
,  // measure 25
0000
0000
0000
0000
0100
0001
1000
0000
0100
0000
0001
0000
0010
0100
0001
0000
,  // measure 26
0010
0001
0010
0100
1000
0000
0000
0010
,  // measure 27
0000
0001
0200
0300
0000
0010
0000
0100
,  // measure 28
0000
0000
0010
0100
0001
1000
0001
0010
0010
0100
0010
0001
1000
0001
0100
0000
,  // measure 29
0100
0010
0001
0100
0010
0001
0100
0001
0100
0010
0001
0100
0001
1000
0100
0000
,  // measure 30
0001
0100
0001
0100
0010
0001
0100
0001
0100
0010
0001
0100
0001
1000
0100
0000
,  // measure 31
0010
0100
0001
0100
0010
0001
0100
0001
0100
0010
0001
0100
0001
1000
0100
0000
,  // measure 32
0020
0000
0030
0001
0100
0001
0100
0000
,  // measure 33
0010
0001
0000
0000
0100
0010
0000
0000
0100
0001
0100
0001
0010
0000
0000
0100
,  // measure 34
0001
1000
0000
0100
0001
0010
0000
0001
0100
0001
0100
0000
0000
0000
0000
0010
,  // measure 35
0100
0001
1000
0001
0010
0100
0001
0010
0100
0000
0010
0000
0100
0001
1000
0001
,  // measure 36
0010
0000
0001
1000
0100
0000
0000
0000
,  // measure 37
0000
0000
0000
0000
0010
0000
0001
0000
0100
0000
0010
0000
0001
0100
0001
0100
,  // measure 38
1000
0000
0000
0001
0100
0000
0000
1000
,  // measure 39
0000
0000
0100
0001
0010
0000
0100
0000
0100
0010
0001
0100
0001
1000
0100
0010
,  // measure 40
0100
0000
0001
0100
1000
0000
0000
0000
,  // measure 41
0000
0000
0000
0000
0100
0001
0010
0000
0100
0000
0001
0010
0100
0001
1000
0000
,  // measure 42
0010
0001
0100
0010
0001
0000
0000
0100
,  // measure 43
0000
0010
0002
0000
0003
0100
0000
0010
,  // measure 44
0110
0000
0000
0000
0100
0000
1000
0000
0100
0001
0010
0000
0100
0001
0000
0000
,  // measure 45
0010
0001
0100
0000
0001
1000
0100
0000
0010
0100
0010
0000
0000
0000
0100
0000
,  // measure 46
0000
0000
0000
0000
0001
0100
0010
0000
0001
1000
0100
0000
0010
0001
0000
0000
,  // measure 47
0010
0001
0100
0000
0010
0001
0100
0000
0010
0001
0100
0000
0000
0000
0001
0000
,  // measure 48
0010
0000
0000
0000
1000
0100
0001
0100
0000
0000
0010
0000
0110
0000
0000
0000
,  // measure 49
0010
0100
0001
1000
0000
0000
0100
0000
1001
0000
0000
0000
0000
0000
0000
0000
,  // measure 50
0000
0000
0000
0000
1000
0100
0001
0010
0000
0000
0100
0000
0110
0000
0000
0000
,  // measure 51
0010
0001
0100
1000
0000
0000
0001
0000
1001
0000
0010
0000
0100
0001
1000
0001
,  // measure 52
0010
0000
0000
0001
0100
0000
0000
0000
,  // measure 53
0000
0000
0000
0000
0010
0000
0001
0000
0100
0000
0010
0000
0001
0100
0001
0100
,  // measure 54
1000
0000
0000
0100
1000
0000
0000
0010
,  // measure 55
0000
0000
0010
0100
0001
0000
0010
0000
0100
0010
0100
0001
1000
0001
0010
0100
,  // measure 56
0001
0000
0100
0100
1000
0000
0000
0000
,  // measure 57
0000
0000
0000
0000
0100
0010
0100
0000
0001
0000
1000
0100
0001
0010
0100
0000
,  // measure 58
0100
0010
0001
0100
1000
0000
0000
0010
,  // measure 59
0000
0000
0010
0000
0200
0000
0300
0000
0000
0000
0010
0000
0100
0001
0010
0100
,  // measure 60
0001
0000
0000
0000
;
