#TITLE:bump147;
#SUBTITLE:;
#ARTIST:Brian Sun;
#TITLETRANSLIT:;
#SUBTITLETRANSLIT:;
#ARTISTTRANSLIT:;
#GENRE:;
#CREDIT:;
#BANNER:;
#BACKGROUND:;
#LYRICSPATH:;
#CDTITLE:;
#MUSIC:BUMP147.ogg;
#OFFSET:0.000000;
#SAMPLESTART:100.059883;
#SAMPLELENGTH:12.000000;
#SELECTABLE:YES;
#BPMS:0.000000=147.000000
;
#STOPS:
;
#BGCHANGES:;
#KEYSOUNDS:;
#ATTACKS:;

//---------------dance-single - ----------------
#NOTES:
     dance-single:
     :
     Hard:
     14:
     0.602301,0.727809,0.018843,0.000000,0.080083,895.000000,891.000000,4.000000,0.000000,0.000000,0.000000,0.602301,0.727809,0.018843,0.000000,0.080083,895.000000,891.000000,4.000000,0.000000,0.000000,0.000000:
// measure 0
0000
0000
0000
0000
,  // measure 1
0000
0000
0000
0000
,  // measure 2
0000
0000
0000
0000
,  // measure 3
0000
0000
0000
0000
,  // measure 4
0100
0000
0001
0000
0100
1000
0000
0000
,  // measure 5
0001
0100
0000
0001
0000
0100
0000
0000
,  // measure 6
0100
0000
0001
0000
0100
0010
0001
1000
,  // measure 7
0001
0100
0000
0010
0000
0001
0000
0000
,  // measure 8
0001
0100
0001
0100
0001
0100
1000
0100
,  // measure 9
0001
0100
0001
0100
0001
1000
0100
0000
,  // measure 10
0100
0001
0100
0010
0100
0010
0100
1000
,  // measure 11
0001
0100
0001
0100
0001
0100
1000
0000
,  // measure 12
0010
0001
0100
0001
0100
0010
0001
1000
,  // measure 13
0001
0100
0010
0100
0001
0100
1000
0000
,  // measure 14
0001
0100
0001
0100
0001
0100
0001
1000
,  // measure 15
0001
0000
0100
0000
0010
0000
0100
0001
1000
0000
0100
0010
0100
0000
0000
0000
,  // measure 16
0010
0001
0100
0001
0100
0001
0100
1000
,  // measure 17
0010
0100
0001
0100
0001
0100
0010
0000
,  // measure 18
0100
0001
0100
0001
0100
0001
0100
1000
,  // measure 19
0100
0010
0100
0001
0100
0001
0100
0000
,  // measure 20
1000
0010
0001
0100
0001
0100
0001
0100
,  // measure 21
0010
0100
0001
0100
0001
1000
0100
0000
,  // measure 22
0010
0100
0001
0100
0001
0100
0010
0001
,  // measure 23
0100
0001
0100
0001
1000
0001
0100
0000
,  // measure 24
0001
0100
0001
0100
0001
1000
0001
0100
,  // measure 25
0010
0100
0001
0100
0001
0100
1000
0000
,  // measure 26
0100
0010
0001
0100
0001
0100
0010
0100
,  // measure 27
0001
0000
0100
0010
1000
0000
0001
0100
0010
0000
0001
0100
1000
0000
0000
0000
,  // measure 28
0100
0001
1000
0001
0010
0100
0001
1000
,  // measure 29
0001
0010
0100
0001
1000
0001
0010
0000
,  // measure 30
0010
0001
1000
0001
0100
0010
0001
0100
,  // measure 31
0001
0100
0001
1000
0000
0100
0000
0000
,  // measure 32
0100
0001
0100
0010
0001
1000
0001
0100
,  // measure 33
0001
0100
0010
0100
0001
0100
0001
0100
,  // measure 34
1000
0010
0100
0001
1000
0001
0100
0001
,  // measure 35
0100
0010
0001
0100
0001
0100
0001
0100
,  // measure 36
0010
0001
1000
0001
0100
0010
0001
0100
,  // measure 37
0001
0100
0010
0001
1000
0001
0100
0010
,  // measure 38
0001
0100
0001
0100
0010
0001
1000
0001
,  // measure 39
0100
0010
0001
0100
0001
0100
1000
0000
,  // measure 40
0001
0000
0000
0100
0000
0000
0010
0000
0000
0001
0000
0000
0100
0000
1000
0000
,  // measure 41
0100
0000
0000
0001
0000
0000
0010
0000
0000
0100
0000
0000
0001
0000
0010
0000
,  // measure 42
0010
0000
0000
0001
0000
0000
0100
0000
0000
1000
0000
0000
0001
0000
0100
0000
,  // measure 43
0010
0000
0000
0010
0000
0000
0010
0000
0000
0001
0000
0000
1000
0000
0100
0000
,  // measure 44
0010
0000
0000
0100
0001
0000
1000
0000
0000
0100
0000
0000
0001
0000
0010
0000
,  // measure 45
0001
0000
0000
0100
0000
0000
0010
0000
0000
0001
0000
0000
0100
0000
0000
0000
,  // measure 46
0010
0000
0000
0001
0000
0000
0100
0000
0000
0010
0000
0000
0100
0000
0001
0000
,  // measure 47
0010
0000
0000
0100
0000
0000
0010
0000
0000
0001
0000
0000
0100
0000
1000
0000
,  // measure 48
0100
0010
0100
0001
1000
0001
0010
0100
,  // measure 49
0001
0100
0001
0010
0100
0100
0010
0100
,  // measure 50
0010
0001
0100
0010
0001
1000
0001
0100
,  // measure 51
0010
0001
0100
0001
0100
0010
0001
1000
,  // measure 52
0001
0100
0010
0001
0100
0001
0100
0010
,  // measure 53
0001
0000
1000
0000
0001
0000
0100
0000
0001
0000
0010
0000
0100
0000
0001
0100
,  // measure 54
1000
0000
0100
0001
0010
0000
0100
0001
1000
0000
0100
0001
0010
0000
1000
0001
,  // measure 55
0100
0000
0010
0001
0100
0000
0010
0100
0001
0000
1000
0000
0100
0000
0001
0000
,  // measure 56
0010
0000
0010
0000
0100
0000
0001
0000
1000
0000
0100
0000
0001
0000
0010
0001
,  // measure 57
0100
0010
0001
1000
0001
0100
1000
0010
,  // measure 58
0001
0100
0001
0100
0010
0001
1000
0001
,  // measure 59
0100
0010
0001
0100
0001
0100
1000
0010
,  // measure 60
0001
0100
0001
0100
0010
0001
1000
0001
,  // measure 61
0100
0000
0010
0000
0001
0000
0100
0000
0001
0000
0100
0000
0010
0000
0001
0100
,  // measure 62
1000
0001
0100
0010
0001
0100
0001
0100
,  // measure 63
0001
0100
0010
0001
1000
0001
0100
0010
,  // measure 64
0001
0100
0001
0100
0001
1000
0100
0010
,  // measure 65
0001
0100
0001
0100
0010
0001
1000
0001
,  // measure 66
0100
0000
0010
0000
0100
0000
0010
0100
0001
0000
1000
0000
0001
0000
0100
0000
,  // measure 67
0010
0001
0100
0001
0100
0001
1000
0100
,  // measure 68
0010
0000
0100
0000
0001
0000
0100
0001
0010
0000
0001
0000
0100
0000
0001
0000
,  // measure 69
0100
0000
0010
0000
0001
0000
1000
0000
0001
0000
0100
0000
0010
0000
0001
0100
,  // measure 70
1000
0010
0001
0100
0001
0100
0010
0001
,  // measure 71
1000
0001
0100
0010
0001
0100
0001
0100
,  // measure 72
1000
0000
0010
0000
0001
0100
0000
0000
,  // measure 73
0001
0100
0000
0001
0000
0100
0000
0000
,  // measure 74
0010
0000
0100
0000
0010
0001
1000
0100
,  // measure 75
0010
0001
0000
0001
0000
0100
0000
0000
,  // measure 76
0010
0000
0001
0000
0100
1000
0000
0000
,  // measure 77
0010
0000
0001
0000
0000
0000
0100
0000
0000
0000
0010
0000
0000
0000
0001
0100
,  // measure 78
1000
0000
0100
0000
1000
0001
0010
0100
,  // measure 79
0001
0100
0000
0010
0000
0010
1000
0001
,  // measure 80
0100
0000
0100
0000
0010
0001
0100
1000
,  // measure 81
0100
0000
0010
0001
1000
0001
0100
0000
,  // measure 82
0010
0000
0001
0000
0001
1000
0100
0001
,  // measure 83
0010
0000
0001
1000
0001
0100
1000
0000
,  // measure 84
1000
0000
0001
0000
0100
0010
1000
0100
,  // measure 85
0001
0000
0001
1000
0001
0100
1000
0000
,  // measure 86
0100
0000
0010
0000
0001
1000
0001
0100
,  // measure 87
1000
0000
0010
0001
0100
1000
0001
0000
,  // measure 88
0100
0000
0010
0000
0001
0100
1000
0010
,  // measure 89
0100
0000
0001
0100
0001
0100
1000
0000
,  // measure 90
0100
0000
0010
0000
0001
1000
0001
0100
,  // measure 91
1000
0000
0001
0100
0001
0100
1000
0000
,  // measure 92
0100
0000
0010
0000
0100
0001
0100
1000
,  // measure 93
0100
0010
0100
0001
0100
0001
0100
0010
,  // measure 94
0001
1000
0001
0100
0010
0001
0100
0001
,  // measure 95
0100
0001
0010
0001
1000
0001
0100
0010
,  // measure 96
1001
0000
1001
1001
,  // measure 97
0100
1000
0001
0100
0001
1000
0001
0010
,  // measure 98
0100
0001
1000
0001
0010
0100
0001
1000
,  // measure 99
0001
0010
0100
0001
1000
0001
0010
0100
,  // measure 100
0001
1000
0001
0010
0100
0001
1000
0001
,  // measure 101
0010
0100
0001
1000
0001
0010
0100
0001
,  // measure 102
0100
0001
0010
0100
0001
1000
0001
0010
,  // measure 103
0100
0010
0001
0100
0010
0001
1000
0001
,  // measure 104
0100
0010
0001
0100
0001
0100
1000
0000
,  // measure 105
0001
1000
0100
1000
0001
1000
0001
0100
,  // measure 106
0010
0100
0001
0100
0001
0100
0001
0100
,  // measure 107
0010
0001
1000
0001
0100
0010
0001
0100
,  // measure 108
0001
0100
0010
0001
1000
0001
0100
0010
,  // measure 109
1000
0010
0100
0010
0100
0001
0100
0010
,  // measure 110
0001
0100
0001
0100
0010
0001
1000
0001
,  // measure 111
0100
0010
0001
0100
0001
0100
0010
0001
,  // measure 112
1000
0001
0100
0010
0001
0100
0001
0100
,  // measure 113
1000
0010
0100
0001
0100
0010
0001
0100
,  // measure 114
0001
0100
0010
0001
1000
0001
0100
0010
,  // measure 115
0001
0100
0001
0100
0010
0001
0100
0001
,  // measure 116
0100
0010
0001
1000
0001
0100
0010
0001
,  // measure 117
0100
0001
0100
0001
0100
0010
0001
1000
,  // measure 118
0001
0100
0010
0001
0100
0001
0100
0010
,  // measure 119
0001
1000
0001
0100
0010
0001
1000
0001
,  // measure 120
0100
0010
0001
0100
0001
0100
1000
0001
,  // measure 121
0100
0000
0010
0000
0100
0010
0000
0000
,  // measure 122
0100
0001
0000
1000
0000
0100
0000
0000
,  // measure 123
0010
0000
0010
0000
0001
0100
1000
0001
,  // measure 124
0100
0010
0000
0001
0000
0100
0000
0000
,  // measure 125
1000
0000
0001
0000
0100
1000
0010
0001
,  // measure 126
0100
0010
0000
0100
0000
0001
0000
0000
,  // measure 127
0001
0000
0100
0000
0010
0001
1000
0001
,  // measure 128
0100
1000
0000
0010
0000
0100
0101
0000
;
