#VERSION:0.83;
#TITLE:bored!;
#SUBTITLE:;
#ARTIST:Jazzy K;
#TITLETRANSLIT:;
#SUBTITLETRANSLIT:;
#ARTISTTRANSLIT:;
#GENRE:;
#ORIGIN:;
#CREDIT:;
#BANNER:;
#BACKGROUND:;
#PREVIEWVID:;
#JACKET:;
#CDIMAGE:;
#DISCIMAGE:;
#LYRICSPATH:;
#CDTITLE:;
#MUSIC:BORED!.ogg;
#OFFSET:0.000000;
#SAMPLESTART:100.059883;
#SAMPLELENGTH:12.000000;
#SELECTABLE:YES;
#BPMS:0.000=108.000;
#STOPS:;
#DELAYS:;
#WARPS:;
#TIMESIGNATURES:0.000=4=4;
#TICKCOUNTS:0.000=4;
#COMBOS:0.000=1;
#SPEEDS:0.000=1.000=0.000=0;
#SCROLLS:0.000=1.000;
#FAKES:;
#LABELS:0.000=Song Start;
#BGCHANGES:;
#KEYSOUNDS:;
#ATTACKS:
;

//---------------dance-single - ----------------
#NOTEDATA:;
#CHARTNAME:;
#STEPSTYPE:dance-single;
#DESCRIPTION:;
#CHARTSTYLE:;
#DIFFICULTY:Hard;
#METER:12;
#RADARVALUES:0.455220,0.555636,0.305265,0.042844,0.259743,595.000000,538.000000,57.000000,8.000000,0.000000,0.000000,0.000000,0.000000,0.000000,0.455220,0.555636,0.305265,0.042844,0.259743,595.000000,538.000000,57.000000,8.000000,0.000000,0.000000,0.000000,0.000000,0.000000;
#CREDIT:;
#NOTES:
// measure 0
0000
0000
0000
0000
,  // measure 1
0000
0000
0000
0000
,  // measure 2
0000
0000
0000
0000
,  // measure 3
0000
0000
0000
0000
,  // measure 4
0000
0000
0000
0000
0000
0000
0000
0100
,  // measure 5
0110
0000
0100
0001
,  // measure 6
0010
0000
0100
0000
0001
0000
0010
0000
0100
0000
0001
0010
0000
0000
0100
0000
,  // measure 7
0110
0000
0000
0010
0100
0000
0010
0000
,  // measure 8
0100
0000
0001
0010
0000
0000
0100
0000
0010
0000
0100
0001
0000
0000
0010
0000
,  // measure 9
0110
0000
0001
0101
,  // measure 10
0100
0000
0010
0100
0000
0000
0000
0000
0001
0000
0010
0100
0000
0000
0100
0000
,  // measure 11
0110
0000
0000
0010
0100
0000
0010
0000
,  // measure 12
0100
0000
0010
0100
0000
0000
0001
0000
0010
0000
0100
0001
0000
0000
0010
0000
,  // measure 13
0011
0000
0100
0000
0010
0000
0000
0000
0100
0001
1000
0100
0001
0000
0010
0000
,  // measure 14
0200
0010
0000
0010
,  // measure 15
0300
0000
0010
0100
0001
0000
0000
0100
0001
0010
0100
0000
0010
0000
0001
0000
,  // measure 16
0100
0010
0001
0100
0001
0100
0010
0001
1000
0001
0100
0010
0100
0000
0001
0000
,  // measure 17
0110
0000
0000
0010
0110
0001
1001
0010
,  // measure 18
0110
0000
0000
0100
0010
0000
0000
0001
,  // measure 19
0101
0000
0000
0010
1001
0010
0110
0001
,  // measure 20
1001
0000
0000
0000
0000
0000
0010
0000
0100
0000
0000
0000
0000
0000
0000
0010
,  // measure 21
0100
0001
0010
0000
0010
0000
0100
0001
0010
0000
0001
0000
0010
0000
0100
0001
,  // measure 22
1000
0000
0001
0000
0010
0100
0001
0000
0010
0000
0100
0000
0001
0000
1000
0000
,  // measure 23
0110
0000
0000
0100
0101
0001
1001
0010
,  // measure 24
0110
0000
0000
0000
0000
0000
0100
0000
0001
0000
0000
0010
0100
0000
0001
0000
,  // measure 25
0000
0000
0000
0000
0000
0100
0001
0000
0010
0000
0001
0000
0010
0100
0001
0000
,  // measure 26
0010
0000
0000
0000
0000
0100
0001
0000
0010
0000
0100
0000
0001
1000
0100
0000
,  // measure 27
0010
0000
0000
0000
0000
0100
0001
0000
0010
0000
0100
0000
0010
0000
0100
0001
,  // measure 28
0010
0000
0000
0000
0000
0000
0000
0010
0100
0000
0001
0000
0000
0000
1000
0000
,  // measure 29
1001
0000
0100
0001
,  // measure 30
0100
0000
0001
0010
0000
0000
0010
0000
0001
0000
0100
0001
0000
0000
0010
0000
,  // measure 31
1001
0000
0100
0001
,  // measure 32
0010
0000
0001
0100
0000
0000
0010
0000
0100
0000
0010
0100
0000
0000
0001
0000
,  // measure 33
0110
0000
0001
0101
,  // measure 34
0010
0000
0001
0010
0000
0000
0100
0000
0010
0000
0100
0001
0000
0000
0001
0000
,  // measure 35
0101
0000
0000
0000
0000
0000
0000
0000
0001
0000
0000
0000
0100
0000
0000
0010
,  // measure 36
0100
0000
0000
0000
0000
0000
0000
0000
0100
0001
1000
0001
0010
0100
0001
0010
,  // measure 37
0100
0000
0010
0000
0100
0000
0000
0000
0100
0001
1000
0100
0001
0000
0010
0000
,  // measure 38
0002
0000
0010
0013
,  // measure 39
0000
0000
0001
0100
0010
0000
0000
0001
0010
0100
0001
0000
0100
0000
0010
0000
,  // measure 40
0100
0010
0001
0100
0001
0100
0010
0001
1000
0001
0100
0010
0100
0000
0001
0000
,  // measure 41
1001
0000
0000
0001
0110
0001
1001
0010
,  // measure 42
0110
0100
0011
0001
0100
0010
0100
0001
,  // measure 43
1001
0000
0101
0001
0101
1000
0110
0001
,  // measure 44
0101
0000
0000
0000
0000
0000
1000
0000
0100
0000
0000
0000
0000
0000
0000
0010
,  // measure 45
0100
0001
1000
0000
0100
0000
0001
0010
0100
0000
0100
0000
0010
0000
0001
0100
,  // measure 46
1000
0000
0010
0000
0100
0001
0010
0000
0010
0000
0001
0000
0100
0000
0001
0000
,  // measure 47
1100
0000
0000
0001
0101
0010
0110
0010
,  // measure 48
0110
0000
0000
0010
0001
1000
0100
0000
,  // measure 49
0010
0000
0000
0000
0100
0010
0100
0000
0001
0000
0100
0000
1000
0000
0100
0000
,  // measure 50
0010
0000
0001
0000
0010
0100
0001
0000
0100
0000
0010
0000
0001
0000
0100
0000
,  // measure 51
1000
0000
0000
0000
0010
0100
0001
0000
0001
0000
0100
0010
1000
0000
0010
0100
,  // measure 52
0001
0000
0000
0010
0100
0010
0001
0000
,  // measure 53
0101
0000
0000
0000
0001
0000
0100
0000
0000
0000
0010
0000
0000
0100
0000
0000
,  // measure 54
0001
0000
0000
0000
0010
0000
0100
0000
0000
0000
0010
0000
0001
0000
0100
0020
,  // measure 55
0000
0030
0000
0000
0020
0000
0030
0000
0000
0020
0000
0030
0000
0000
0020
0000
,  // measure 56
0030
0000
0000
0020
0000
0030
0000
0020
0030
0000
0010
0100
0000
0000
0001
0000
,  // measure 57
0101
0000
0000
0000
0000
0000
0010
0000
0000
0001
0000
0000
0000
0000
0000
0000
0010
0000
0000
0000
0100
0000
0000
0000
,  // measure 58
0001
0000
1000
0100
0000
0010
0100
0001
,  // measure 59
0010
0000
0000
0000
0000
0000
0001
0000
0000
0010
0000
0000
0000
0000
0000
0000
0100
0000
0000
0000
0010
0000
0000
0000
,  // measure 60
0010
0000
0100
0001
0000
0001
0100
1000
,  // measure 61
0010
0000
0000
0000
0000
0000
0100
0000
0000
0001
0000
0000
0000
0000
0000
0000
0010
0000
0000
0000
0100
0000
0000
0000
,  // measure 62
0100
0000
0010
0001
0000
0010
0001
0100
,  // measure 63
0010
0000
0000
0000
0000
0000
0010
0000
0000
0001
0000
0000
0000
0000
0000
0000
0010
0000
0000
0000
0001
0000
0000
0000
,  // measure 64
0010
0000
0000
0000
0100
0000
0001
0000
0010
0001
0100
0010
0001
0100
0001
0100
,  // measure 65
1000
0000
0000
0001
0101
0010
0110
0001
,  // measure 66
1001
0010
0110
0001
1000
0100
0010
0001
,  // measure 67
1001
0000
0101
0001
0101
1000
0110
0001
,  // measure 68
1001
0000
0000
0000
0000
0000
0010
0000
0100
0000
0000
0000
0000
0000
0000
0100
,  // measure 69
0001
1000
0001
0010
0100
0000
0010
0100
0001
0000
0001
0000
0100
0000
0010
0100
,  // measure 70
0001
0000
0010
0000
0001
0010
0100
0000
0010
0000
0001
0000
0100
0000
0001
0000
,  // measure 71
1100
0000
0000
0010
0101
0001
0101
0010
,  // measure 72
1001
0000
0000
0000
0000
0000
0010
0000
1000
0000
0100
0000
0010
0100
0001
0000
,  // measure 73
0100
0000
0000
0000
0100
0010
0001
0000
0010
0000
0001
0000
0100
0000
0010
0000
,  // measure 74
0001
0000
0000
0000
0100
0001
0010
0000
0001
0000
0100
0000
1000
0000
0000
0000
,  // measure 75
0010
0000
0000
0000
0001
0100
0010
0000
0010
0000
0001
0000
1000
0000
0001
0000
,  // measure 76
0100
0000
0000
0000
0010
0000
0000
0100
0001
0000
0010
0000
0001
0000
0100
0000
,  // measure 77
0110
0000
0000
0000
0010
0100
0001
0000
0001
0000
0100
0000
1000
0000
0100
0000
,  // measure 78
0010
0000
0001
0000
0010
0100
0001
0000
0100
0000
0010
0000
0001
0000
0100
0000
,  // measure 79
1000
0000
0000
0000
0100
0001
0010
0000
0100
0000
0010
0000
0001
0000
0100
0000
,  // measure 80
1000
0000
0000
0000
0010
0000
0000
0100
0001
0000
0010
0000
0100
0000
0010
0000
,  // measure 81
0110
0100
0001
0010
0110
0100
0110
0001
,  // measure 82
1001
0000
0010
0000
0001
0000
0100
0000
0001
0000
0100
0000
0010
0000
1000
0100
,  // measure 83
0001
0000
0000
0000
;
