#TITLE:bad4me;
#SUBTITLE:;
#ARTIST:Pluko;
#TITLETRANSLIT:;
#SUBTITLETRANSLIT:;
#ARTISTTRANSLIT:;
#GENRE:;
#CREDIT:;
#BANNER:;
#BACKGROUND:;
#LYRICSPATH:;
#CDTITLE:;
#MUSIC:BAD4ME.ogg;
#OFFSET:0.000000;
#SAMPLESTART:100.059883;
#SAMPLELENGTH:12.000000;
#SELECTABLE:YES;
#BPMS:0.000000=148.000000
;
#STOPS:0.000000=0.800000
;
#BGCHANGES:;
#KEYSOUNDS:;
#ATTACKS:;

//---------------dance-single - ----------------
#NOTES:
     dance-single:
     :
     Hard:
     12:
     0.501104,0.772340,0.095286,0.154840,0.053599,589.000000,573.000000,16.000000,26.000000,0.000000,0.000000,0.501104,0.772340,0.095286,0.154840,0.053599,589.000000,573.000000,16.000000,26.000000,0.000000,0.000000:
// measure 0
0000
0000
0000
0000
,  // measure 1
0000
0000
0000
0000
,  // measure 2
0000
0000
0000
0000
,  // measure 3
0000
0000
0000
0000
,  // measure 4
0000
0010
0000
0001
1000
0000
0100
0000
,  // measure 5
0000
0000
0000
0100
0001
0000
1000
0200
,  // measure 6
0000
0000
0000
0000
,  // measure 7
0000
0000
0000
0300
0000
0010
0100
1000
,  // measure 8
0100
0010
0001
0100
0001
0100
0010
0100
,  // measure 9
0010
0100
0001
0100
0010
0001
1000
0001
,  // measure 10
0100
0010
0001
0100
0001
0100
0010
0001
,  // measure 11
1000
0001
0100
0010
0001
0100
0001
0100
,  // measure 12
0010
0001
1000
0001
0100
0001
0010
0100
,  // measure 13
0100
0001
1000
0001
0100
0010
0001
0100
,  // measure 14
0001
0100
0010
0001
0100
0001
0100
0010
,  // measure 15
0001
1000
0001
0100
0011
0000
0011
0000
,  // measure 16
0011
0100
0010
0001
,  // measure 17
0100
0000
0010
0001
0000
0100
0000
1000
,  // measure 18
0000
0000
0001
0100
0010
0000
0001
0100
,  // measure 19
1000
0100
0010
0100
0010
0000
0001
0000
,  // measure 20
0100
0010
0001
0100
0001
0100
0010
0001
,  // measure 21
1000
0001
0100
0001
0010
0100
0001
0100
,  // measure 22
0010
0001
0100
0010
0001
0100
0001
0100
0010
0001
0100
0001
0100
0010
0001
0100
,  // measure 23
1000
0010
0100
0001
1000
0000
0010
0000
,  // measure 24
0001
0100
0001
0100
0010
0001
0100
0001
,  // measure 25
0100
0010
0100
0010
0100
0001
0100
0010
,  // measure 26
0001
1000
0001
0100
0010
0001
0100
0001
,  // measure 27
0100
0010
0001
0100
0001
0100
0010
0001
,  // measure 28
0100
0001
0100
0010
0001
0100
0001
0100
,  // measure 29
1000
0100
0010
0100
0010
0100
0010
0001
,  // measure 30
0100
0001
0100
0010
0001
1000
0001
0100
,  // measure 31
0010
0001
0100
0001
0100
0001
0010
0001
,  // measure 32
1000
0100
0010
0001
0100
0000
1000
0000
,  // measure 33
0100
0000
0010
0000
0001
0100
0001
0100
,  // measure 34
1000
0100
0010
0001
0100
0000
1000
0000
,  // measure 35
0001
0000
0100
0000
0010
0001
0100
0010
,  // measure 36
0001
0100
0001
0100
1000
0000
0100
0000
,  // measure 37
0010
0000
0100
0010
0001
0100
0001
1000
,  // measure 38
0100
1000
0001
0100
,  // measure 39
0010
0000
0001
0000
0100
0001
0100
0010
,  // measure 40
0001
1000
0100
0010
0100
0001
1000
0000
,  // measure 41
0001
0100
0010
0000
0001
1000
0100
0010
,  // measure 42
0001
0100
0001
0100
1000
0010
0100
0000
,  // measure 43
0001
0100
0010
0000
0001
0100
0010
0001
,  // measure 44
0100
0001
0100
0010
0001
0100
0001
1000
,  // measure 45
0100
0001
0010
0100
0001
0100
0010
0001
,  // measure 46
0100
0001
0100
0010
0001
1000
0001
0100
,  // measure 47
0001
0001
0010
0100
0101
0000
0101
0000
,  // measure 48
0101
0001
0010
0100
0001
1000
0001
0010
,  // measure 49
0100
0001
0100
0001
0010
0100
0001
1000
,  // measure 50
0001
0010
0100
0001
0100
0001
0010
0100
,  // measure 51
0001
1000
0001
0010
0100
0010
0001
0100
,  // measure 52
0001
0100
0010
0001
0100
0001
0100
0010
,  // measure 53
0001
1000
0001
0100
0010
0001
0100
0001
,  // measure 54
0100
0010
0001
0100
0001
0100
0010
0001
,  // measure 55
1000
0001
0100
0010
0101
0000
0101
0000
,  // measure 56
0220
0000
0000
0000
0330
0001
1000
0200
,  // measure 57
0000
0000
0000
0000
0300
0000
0100
0010
,  // measure 58
0020
0000
0000
0000
0030
0000
0010
0200
,  // measure 59
0000
0000
0300
0100
,  // measure 60
0220
0000
0000
0330
,  // measure 61
2002
0000
0000
3003
,  // measure 62
0220
0000
0000
0000
,  // measure 63
0000
0000
0000
0330
,  // measure 64
0202
0000
0000
0303
,  // measure 65
2200
0000
0000
3300
,  // measure 66
0202
0000
0000
0000
,  // measure 67
0000
0000
0000
0000
,  // measure 68
0303
0001
1000
0001
,  // measure 69
0100
0000
0010
0001
0000
0100
0000
0000
,  // measure 70
0001
1000
0001
0100
0001
0000
0100
0010
,  // measure 71
0100
0001
0100
0010
0001
0000
1000
0000
,  // measure 72
0100
0010
0100
0010
0001
0100
0001
0100
,  // measure 73
0010
0100
0001
0100
1000
0001
0100
0010
,  // measure 74
0001
0100
0010
0001
0100
0001
0100
0010
0001
1000
0001
0100
0010
0010
0001
0100
,  // measure 75
0001
1000
0001
0100
0010
0000
0100
0000
,  // measure 76
0001
0010
0100
1000
0100
0010
0100
0010
,  // measure 77
0100
0010
0100
0100
1000
0100
0010
0100
,  // measure 78
0001
0100
0010
0001
0100
1000
0010
0100
,  // measure 79
0001
0100
0010
0001
0100
0001
0100
0010
,  // measure 80
0001
0100
0001
0100
0010
0001
1000
0001
,  // measure 81
0100
0010
0001
0100
0001
0100
0010
0001
,  // measure 82
0100
0001
0100
0010
0001
1000
0001
0100
,  // measure 83
0010
0000
0001
0000
0100
0000
0001
0000
0100
0000
0010
0000
0001
0100
0001
0100
,  // measure 84
1000
0010
0100
0001
1000
0001
0010
0100
,  // measure 85
0001
0100
0010
0001
0100
0001
0100
1000
,  // measure 86
0100
0010
0100
0010
0100
0001
0100
0010
,  // measure 87
0001
0100
0001
0100
1000
0100
0010
0001
,  // measure 88
0100
0001
0100
0010
0001
0100
0001
0100
,  // measure 89
0010
0001
1000
0001
0100
0010
0001
0100
,  // measure 90
0001
0100
0010
0001
0100
0001
0100
0010
,  // measure 91
0001
1000
0001
0100
0010
0001
0100
0001
,  // measure 92
0220
0000
0000
0330
,  // measure 93
0020
0000
0000
0030
,  // measure 94
0200
0000
0000
0000
,  // measure 95
0000
0000
0000
0300
,  // measure 96
0002
0000
0000
0003
,  // measure 97
0200
0000
0000
0300
,  // measure 98
2000
0000
0000
0000
,  // measure 99
0000
0000
0000
0000
,  // measure 100
0000
0000
0000
0000
,  // measure 101
0000
0000
0002
0000
,  // measure 102
0000
0000
0000
0000
,  // measure 103
0000
0000
0000
3003
;
