#TITLE:b with u;
#SUBTITLE:;
#ARTIST:Wavedash*;
#TITLETRANSLIT:;
#SUBTITLETRANSLIT:;
#ARTISTTRANSLIT:;
#GENRE:;
#CREDIT:;
#BANNER:;
#BACKGROUND:;
#LYRICSPATH:;
#CDTITLE:;
#MUSIC:Wavedash - b With U (Official Audio).ogg;
#OFFSET:0.000000;
#SAMPLESTART:100.059883;
#SAMPLELENGTH:12.000000;
#SELECTABLE:YES;
#BPMS:0.000000=123.000000
;
#STOPS:0.000000=0.100000,
63.000000=0.400000,
94.000000=0.500000,
125.000000=0.500000,
128.000000=0.500000,
131.000000=0.500000,
134.000000=0.500000,
137.000000=0.500000,
140.000000=0.500000,
143.000000=0.500000,
146.000000=0.400000,
148.000000=1.000000,
211.000000=0.400000,
242.000000=0.500000,
273.000000=0.500000
;
#BGCHANGES:;
#KEYSOUNDS:;
#ATTACKS:;

//---------------dance-single - ----------------
#NOTES:
     dance-single:
     :
     Hard:
     11:
     0.453277,0.491868,0.031230,0.000000,0.081197,508.000000,503.000000,5.000000,0.000000,0.000000,0.000000,0.453277,0.491868,0.031230,0.000000,0.081197,508.000000,503.000000,5.000000,0.000000,0.000000,0.000000:
// measure 0
0000
0000
0000
0000
,  // measure 1
0000
0000
0000
0000
,  // measure 2
0000
0000
0000
0000
,  // measure 3
0000
0000
0000
0000
,  // measure 4
0100
0010
0001
1000
0001
0100
0010
0000
,  // measure 5
0100
0001
0010
0000
0001
0100
1000
0000
,  // measure 6
0100
0010
0001
1000
0001
0100
0010
0000
,  // measure 7
0001
0100
1000
0000
0001
0100
0010
0000
,  // measure 8
0001
0100
0010
0100
0001
0100
1000
0000
,  // measure 9
0001
0100
1000
0000
0001
0100
0010
0000
,  // measure 10
0100
0010
0001
0100
0001
1000
0100
0000
,  // measure 11
0001
0100
0010
0000
0001
1000
0100
0000
,  // measure 12
0001
0100
0010
0100
0001
0100
1000
0000
,  // measure 13
0001
0100
0010
0000
0001
0100
1000
0000
,  // measure 14
0001
0100
0010
0100
0001
0100
1000
0000
,  // measure 15
0010
0001
0100
0000
1000
0001
0100
0000
,  // measure 16
0001
1000
0001
0100
0010
0000
0001
1000
,  // measure 17
0001
0100
0001
0100
1000
0000
0001
0100
,  // measure 18
0010
0100
0001
0100
1000
0000
0010
0100
,  // measure 19
0001
1000
0001
0010
0100
0000
1000
0010
,  // measure 20
0001
0100
0001
0100
1000
0000
0100
0010
,  // measure 21
0001
1000
0001
0100
0010
0000
0100
0010
,  // measure 22
0001
0000
0100
0000
0001
0000
0100
0000
1000
0000
0000
0000
1000
0100
0001
0100
,  // measure 23
0001
1000
0001
0010
0100
0001
1000
0001
0010
0000
0000
0000
0001
0000
1000
0000
,  // measure 24
0001
0100
0010
0000
0001
0100
1000
0010
,  // measure 25
0001
1000
0100
0000
0100
0010
0001
0100
,  // measure 26
0001
0100
1000
0000
0100
0010
0001
0100
,  // measure 27
0001
0100
1000
0000
0001
0100
0100
0001
,  // measure 28
0100
0001
0100
0000
1000
0001
0100
0010
,  // measure 29
0000
0100
0001
0000
0001
0100
0001
0100
,  // measure 30
0001
0100
1000
0000
0100
0100
0100
0100
,  // measure 31
0100
0100
0100
0000
0001
0100
0001
0100
,  // measure 32
1000
0000
0001
0100
0001
0100
1000
0000
,  // measure 33
0001
0100
0001
0100
1000
0000
0001
0100
,  // measure 34
0001
0100
1000
0000
0010
0001
0100
0001
,  // measure 35
0100
0000
0001
0100
0001
0100
1000
0000
,  // measure 36
0001
0000
0100
0000
0001
0000
0100
0000
1000
0000
0100
0000
0000
0100
0000
0000
,  // measure 37
0010
0000
0100
0010
0001
1000
0001
0000
,  // measure 38
0100
0010
0001
1000
0001
0100
1000
0000
,  // measure 39
0100
0010
0001
0100
0001
0100
1000
0000
,  // measure 40
0010
0100
0001
0100
0001
0100
1000
0000
,  // measure 41
0100
0010
0001
0100
0001
0100
1000
0000
,  // measure 42
0010
0100
0001
1000
0001
0010
0100
0000
,  // measure 43
0100
0010
0001
1000
0001
0100
0010
0000
,  // measure 44
0100
0010
0001
0100
0001
0100
1000
0000
,  // measure 45
0100
0010
0001
0100
0001
0100
1000
0000
,  // measure 46
0001
0100
0010
0000
0001
0100
1000
0000
,  // measure 47
0100
0010
0001
0100
0001
0100
1000
0000
,  // measure 48
0001
0100
0010
0000
0001
1000
0100
0000
,  // measure 49
0010
0001
0100
0001
0100
0010
0001
1000
,  // measure 50
0001
0100
0010
0100
0001
0100
0001
0100
,  // measure 51
1000
0001
0100
0010
0001
0100
0001
0100
,  // measure 52
0010
0001
1000
0001
0100
0001
0100
0000
,  // measure 53
0001
1000
0001
0100
0001
0000
0100
0010
,  // measure 54
0001
1000
0001
0100
1000
0000
0100
0010
,  // measure 55
0001
0100
0001
0100
1000
0000
0100
0010
,  // measure 56
0001
0100
0001
0100
1000
0000
0100
0010
,  // measure 57
0001
1000
0001
0100
1000
0000
0100
0010
,  // measure 58
0001
1000
0001
0100
1000
0000
0100
0010
,  // measure 59
0001
0000
1000
0000
0001
0000
0100
0000
0010
0000
0000
0000
0001
0100
0010
0001
,  // measure 60
1000
0001
0100
0010
0001
1000
0001
0100
1000
0000
0000
0000
0001
0000
0100
0000
,  // measure 61
0001
0100
1000
0000
0100
0010
0001
0100
,  // measure 62
0001
0100
1000
0000
0100
0010
0001
0100
,  // measure 63
0001
0100
1000
0000
0100
0010
0001
0100
,  // measure 64
0001
0100
1000
0000
0100
0010
0001
0100
,  // measure 65
0001
0100
1000
0000
0010
0001
0100
0001
,  // measure 66
0000
0100
1000
0000
0100
0010
0001
1000
,  // measure 67
0001
0100
1000
0000
0001
0100
0010
0000
,  // measure 68
1000
0000
0001
0000
0100
0000
0000
0000
0100
0000
0010
0001
1000
0000
0000
0000
,  // measure 69
0100
0000
0110
0000
0010
0000
0000
0000
0100
0000
0001
0010
0001
0000
0000
0000
,  // measure 70
1000
0000
0000
0000
0100
0000
0000
0000
0100
0000
0001
0010
0001
0000
0000
0000
,  // measure 71
0001
0000
0110
0000
1100
0000
0000
0000
0001
0000
0010
0100
0010
0000
0000
0000
,  // measure 72
0010
0000
0000
0000
0100
0000
0010
0001
0000
0000
0100
1000
0001
0000
0000
1000
,  // measure 73
0000
0000
0101
0000
0110
0000
0010
0001
0000
0000
1000
0100
0010
0000
0001
0010
,  // measure 74
0000
0000
1000
0000
0100
0000
0001
0010
0000
0000
0100
0001
0010
0000
0001
1000
,  // measure 75
0100
0000
0000
0000
;
