#TITLE:aphonia;
#SUBTITLE:;
#ARTIST:CVLTE;
#TITLETRANSLIT:;
#SUBTITLETRANSLIT:;
#ARTISTTRANSLIT:;
#GENRE:;
#CREDIT:;
#BANNER:;
#BACKGROUND:;
#LYRICSPATH:;
#CDTITLE:;
#MUSIC:aphonia.ogg;
#OFFSET:0.000000;
#SAMPLESTART:100.059883;
#SAMPLELENGTH:12.000000;
#SELECTABLE:YES;
#BPMS:0.000000=140.000000
;
#STOPS:
;
#BGCHANGES:0.000=aphonia.mp4=1.000=0=0=1=====,
99999=-nosongbg-=1.000=0=0=0 // don't automatically add -songbackground-
;
#KEYSOUNDS:;
#ATTACKS:;

//---------------dance-single - ----------------
#NOTES:
     dance-single:
     :
     Hard:
     12:
     0.437785,0.775101,0.007110,0.184865,0.202641,431.000000,430.000000,1.000000,26.000000,0.000000,0.000000,0.437785,0.775101,0.007110,0.184865,0.202641,431.000000,430.000000,1.000000,26.000000,0.000000,0.000000:
// measure 0
0000
0000
0000
0000
,  // measure 1
0000
0000
0000
0000
,  // measure 2
0000
0100
0000
0010
0000
1000
0100
0001
,  // measure 3
0000
0010
0000
0100
0001
1000
0100
0010
,  // measure 4
0100
0000
0001
0000
0000
0000
1000
0000
0001
0000
0100
0000
1000
0000
0010
0100
,  // measure 5
0000
0000
0100
0000
0010
0000
0001
0100
,  // measure 6
0000
0010
0000
0001
0000
0100
0000
0010
,  // measure 7
0000
0100
0001
1000
0010
0000
0001
0100
,  // measure 8
0000
0001
0000
0100
0000
0010
0000
1000
,  // measure 9
0001
0000
0100
0000
0000
0010
0000
0100
,  // measure 10
0000
0000
0100
0001
1000
0010
0100
0010
,  // measure 11
0100
0000
0100
0000
0010
0001
0000
0200
,  // measure 12
0000
0000
0300
0000
0001
0100
0000
0010
,  // measure 13
0200
0000
0300
0000
0100
0010
0000
0001
,  // measure 14
0100
0000
0010
0000
0010
0001
1000
0001
,  // measure 15
0100
0010
0100
0000
0000
0100
0001
0100
,  // measure 16
0010
0000
0001
1000
0200
0000
0300
0000
,  // measure 17
1001
0000
0000
0100
0001
0000
0010
0000
0100
0000
0001
0000
0010
0000
0100
0000
,  // measure 18
0001
0100
0020
0030
,  // measure 19
0001
0000
0000
1000
0100
0010
0100
0000
0010
0000
0001
0000
0010
0000
0100
0000
,  // measure 20
0001
0100
0001
0100
,  // measure 21
1000
0000
0000
0001
0010
0000
0010
0000
0001
0000
1000
0000
0001
0000
0100
0000
,  // measure 22
1000
0000
0100
0000
0010
0000
0000
0100
,  // measure 23
0001
0100
0010
0001
,  // measure 24
1000
0001
0200
0300
,  // measure 25
0010
0000
0000
0000
0010
0000
0000
0000
0010
0100
0001
1000
0001
0010
0100
0001
,  // measure 26
0100
0000
0000
0000
0100
0000
0000
0000
0010
0001
0100
0001
0100
1000
0001
0100
,  // measure 27
1000
0000
0000
0000
0010
0000
0000
0000
0100
0001
0100
0010
0001
1000
0001
0100
,  // measure 28
1000
0000
0001
0000
0200
0000
0300
0001
,  // measure 29
0100
0000
0000
0000
0010
0000
0000
0000
0100
0010
0001
1000
0001
0100
0001
1000
,  // measure 30
0100
0000
0010
0000
0001
1000
0100
0000
,  // measure 31
0100
0000
0000
0000
0010
0000
0000
0000
0100
0001
0100
0010
0001
1000
0001
0100
,  // measure 32
1000
0001
0200
0000
,  // measure 33
0000
0000
0000
0000
,  // measure 34
0300
0001
0100
0010
0001
1000
0001
0100
,  // measure 35
1000
0010
0001
0000
0100
1000
0010
0100
,  // measure 36
0001
0000
1000
0000
0001
0100
0010
0100
,  // measure 37
1000
0001
0010
0000
0000
0000
1000
0001
,  // measure 38
0100
0000
0001
0000
0100
0010
0001
0000
,  // measure 39
0100
0010
0001
0000
0001
0000
0100
0000
,  // measure 40
1000
0001
0100
0010
0001
1000
0100
0000
,  // measure 41
0000
0000
0000
1000
0100
0001
0100
0001
,  // measure 42
0010
0100
0001
1000
0000
0100
0001
0000
,  // measure 43
0000
0000
0000
0000
0000
0000
0000
0001
,  // measure 44
1000
0001
0100
0000
0010
0001
0200
0000
,  // measure 45
0300
0001
1000
0100
0001
0000
0010
0100
,  // measure 46
0000
0000
0010
0000
0100
0001
2000
0000
,  // measure 47
0000
0000
0000
0000
0000
0000
3000
1000
,  // measure 48
0001
1000
0001
0100
2000
0000
3000
0000
,  // measure 49
0100
0000
0000
0001
0010
0000
0100
0000
0001
0000
0100
0000
0001
0000
0100
0000
,  // measure 50
0001
0100
0020
0030
,  // measure 51
0100
0000
0001
1000
0100
0001
0100
0000
0100
0000
0010
0000
0001
0000
0010
0000
,  // measure 52
1000
0001
0100
1000
,  // measure 53
0100
0000
0000
0001
0010
0000
0100
0000
0001
0000
0010
0000
0100
0000
0010
0000
,  // measure 54
1000
0000
0001
0000
0100
0000
0000
0010
,  // measure 55
0100
0001
0100
0010
,  // measure 56
1000
0000
0001
0000
0200
0000
0300
0010
,  // measure 57
0100
0000
0000
0000
0100
0000
0000
0000
1000
0100
0001
1000
0001
0010
0100
0001
,  // measure 58
0100
0000
0010
0000
0001
0100
1000
0000
,  // measure 59
0010
0000
0000
0000
0100
0000
0000
0000
1000
0100
0001
0100
0001
1000
0001
0010
,  // measure 60
0100
0100
2000
3000
,  // measure 61
0100
0000
0000
0000
0010
0000
0000
0000
0100
0001
0100
0010
0001
1000
0001
0100
,  // measure 62
1000
0000
0100
0000
0010
0001
0100
0000
,  // measure 63
0001
0000
0000
0000
0100
0000
0000
0000
0010
0001
0100
0010
0001
1000
0001
0100
,  // measure 64
1000
0001
0010
0100
0001
0100
0010
0001
1000
0001
0100
0010
0001
1000
0001
0100
,  // measure 65
2000
3000
0200
0300
,  // measure 66
0020
0000
0030
0000
1000
0001
0100
0000
,  // measure 67
0200
0000
0000
0000
0300
0000
0000
0000
0010
0001
0100
0010
0001
1000
0001
0100
,  // measure 68
1000
0001
0200
0300
,  // measure 69
0002
0003
0200
0300
,  // measure 70
0020
0000
0030
0000
0001
0100
1000
0000
,  // measure 71
0002
0003
0200
0300
,  // measure 72
1000
0000
0001
0000
0200
0000
0300
0010
,  // measure 73
0100
0000
0000
0001
0010
0000
0000
0010
,  // measure 74
0001
0000
0000
0100
1000
0000
0000
0100
,  // measure 75
0001
0000
0000
0010
0100
0000
0000
0010
,  // measure 76
0001
0000
0000
1000
0100
0000
0000
0001
,  // measure 77
0100
0000
0000
0010
0001
0000
0000
0100
,  // measure 78
1000
0000
0000
0001
0100
0000
0000
0010
,  // measure 79
0002
0000
0000
0000
0003
0000
0100
1000
,  // measure 80
0001
0100
0020
0030
;
