#TITLE:aperture;
#SUBTITLE:;
#ARTIST:Harry Styles;
#TITLETRANSLIT:;
#SUBTITLETRANSLIT:;
#ARTISTTRANSLIT:;
#GENRE:;
#CREDIT:;
#BANNER:;
#BACKGROUND:;
#LYRICSPATH:;
#CDTITLE:;
#MUSIC:Harry Styles - Aperture (Official Audio).ogg;
#OFFSET:0.000000;
#SAMPLESTART:100.059883;
#SAMPLELENGTH:12.000000;
#SELECTABLE:YES;
#BPMS:0.000000=128.000000
;
#STOPS:0.000000=1.000000
;
#BGCHANGES:;
#KEYSOUNDS:;
#ATTACKS:;

//---------------dance-single - ----------------
#NOTES:
     dance-single:
     :
     Hard:
     12:
     0.542864,0.600837,0.335017,0.000000,0.081361,1191.000000,1086.000000,105.000000,0.000000,0.000000,0.000000,0.542864,0.600837,0.335017,0.000000,0.081361,1191.000000,1086.000000,105.000000,0.000000,0.000000,0.000000:
// measure 0
0000
0000
0000
0000
,  // measure 1
0000
0000
0000
0000
,  // measure 2
0000
0000
0000
0000
,  // measure 3
0000
0000
0000
0000
,  // measure 4
0001
1000
0001
0100
,  // measure 5
0010
0001
0100
0001
,  // measure 6
0100
0001
0100
0010
,  // measure 7
0001
1000
0001
0100
,  // measure 8
0010
0100
0010
0100
0001
0100
0001
0000
,  // measure 9
0100
0010
0001
1000
0001
0100
0001
0000
,  // measure 10
0100
0010
0001
0100
0001
0100
1000
0000
,  // measure 11
0100
0001
0100
0001
0100
1000
0100
0000
,  // measure 12
0010
0100
0001
1000
0001
0010
0100
0000
,  // measure 13
0001
0100
0001
1000
0001
0010
0100
0000
,  // measure 14
0100
0010
0001
0100
0001
0100
1000
0000
,  // measure 15
0100
0010
0100
0001
0100
0001
0100
0000
,  // measure 16
1100
0000
0000
0000
0110
0000
0000
0000
0101
0000
0000
0110
0000
0000
0101
0000
,  // measure 17
0110
0000
0000
0000
0110
0000
0000
0000
0101
0000
0000
0110
0000
0000
1001
0000
,  // measure 18
0101
0000
0000
0000
0101
0000
0000
0000
0110
0000
0000
0110
0000
0000
0101
0000
,  // measure 19
0110
0000
0000
0000
0110
0000
0000
0000
0101
0000
0000
0110
0000
0000
1001
0000
,  // measure 20
0110
0000
0000
0000
0110
0000
0000
0000
0101
0000
0000
0110
0000
0000
1001
0000
,  // measure 21
0110
0000
0000
0000
0110
0000
0000
0000
0101
0000
0000
0110
0000
0000
1001
0000
,  // measure 22
0110
0000
0000
0000
0101
0000
0000
0000
0110
0000
0000
0101
0000
0000
1001
0000
,  // measure 23
0110
0000
0000
0000
0110
0000
0000
0000
0110
0000
0000
0101
0000
0000
1001
0000
,  // measure 24
0000
0000
1000
0000
0000
0001
0000
0000
,  // measure 25
0000
0000
0000
0000
0100
0000
1000
0000
0000
0000
0001
0000
0000
0000
0000
0100
,  // measure 26
0000
0000
0000
0000
0000
0000
0010
0000
0000
0000
0000
0100
0000
0000
0000
0000
,  // measure 27
0000
0100
0001
1000
0000
0000
0100
0001
,  // measure 28
0000
0000
0000
0001
0000
0100
0000
0000
,  // measure 29
0000
0000
0000
0000
0010
0000
0001
0000
0010
0000
0001
0000
0000
0000
0000
0100
,  // measure 30
0000
0000
0010
0000
0000
0001
0000
0000
,  // measure 31
0000
0000
0000
0001
1000
0100
0000
0001
,  // measure 32
0101
0000
0000
0000
0101
0000
0000
0000
0110
0000
0000
0101
0000
0000
1001
0000
,  // measure 33
0110
0000
0000
0000
0110
0000
0000
0000
0101
0000
0000
0110
0000
0000
1001
0000
,  // measure 34
0110
0000
0000
0000
0101
0000
0000
0000
0110
0000
0000
1100
0000
0000
0110
0000
,  // measure 35
0101
0000
0000
0000
0110
0000
0010
0000
0110
0000
0000
1100
0000
0000
0101
0000
,  // measure 36
0110
0000
0000
0000
0110
0000
0000
0000
0101
0000
0000
0110
0000
0000
1001
0000
,  // measure 37
0101
0000
0000
0000
0101
0000
0000
0000
0110
0000
0000
0101
0000
0000
1001
0000
,  // measure 38
0101
0000
0000
0000
0110
0000
0000
0000
0101
0000
0000
0110
0000
0000
1001
0000
,  // measure 39
0101
0000
0000
0000
0101
0000
0000
0000
0101
0000
0000
0110
0000
0000
1001
0000
,  // measure 40
0010
0100
0100
0010
0001
0100
0001
0100
,  // measure 41
0001
0100
1000
0100
0010
0100
0010
0100
,  // measure 42
1000
0100
0100
1000
0100
0100
0001
0100
,  // measure 43
0010
0001
1000
0001
0100
0010
0001
1000
,  // measure 44
0001
0100
0010
0001
0100
0001
0100
0001
,  // measure 45
0100
0010
0001
1000
0001
0100
0010
0001
,  // measure 46
1000
0001
0100
0001
0100
0010
0001
0100
,  // measure 47
0001
0100
0001
0100
0010
0001
0100
0010
,  // measure 48
0001
0100
0001
0100
1000
0100
0010
0001
,  // measure 49
0100
0001
0100
0001
0100
0010
0010
0100
,  // measure 50
0100
1000
1000
0100
0100
1000
1000
0100
,  // measure 51
0100
1000
0100
0100
1000
0100
0100
1000
,  // measure 52
0100
0100
0010
0010
0100
0001
0100
0001
,  // measure 53
0100
0010
0001
1000
0001
0100
0010
0001
,  // measure 54
0100
0001
0100
0010
0001
0100
0001
0100
,  // measure 55
0010
0001
0100
0001
0100
0010
0001
1000
,  // measure 56
0001
0100
0010
0001
0100
0001
0100
1000
,  // measure 57
0010
0001
0100
0001
0100
0010
0001
1000
,  // measure 58
0001
0100
0010
0100
0001
0100
0001
0100
,  // measure 59
0001
0100
0010
0001
1000
0001
0100
0010
,  // measure 60
0001
0000
0000
0000
0100
0000
0000
0000
1000
0000
0000
0100
0000
0000
0010
0000
,  // measure 61
0001
0000
0000
0000
0100
0000
0000
0000
0010
0000
0000
0001
0000
0000
0100
0000
,  // measure 62
0001
0000
0000
0000
0100
0000
0000
0000
0010
0000
0000
0001
0000
0000
1000
0000
,  // measure 63
0100
0000
0010
0000
0000
0000
0001
0000
1000
0000
0000
0100
0000
0000
0000
0000
,  // measure 64
0100
0010
0001
0100
0001
0100
1000
0001
,  // measure 65
1000
0001
0100
0010
0001
0100
0100
0010
,  // measure 66
0001
0100
0010
0001
0100
0001
0100
1000
,  // measure 67
0100
0100
0100
0100
0100
0100
0100
0100
,  // measure 68
0100
0010
0010
0010
0010
0010
0010
0010
,  // measure 69
0010
0010
0010
0010
0001
0100
0010
0100
,  // measure 70
1000
0100
0100
0001
0100
0001
0100
1000
,  // measure 71
0100
0010
0100
0010
0100
0010
0100
0010
,  // measure 72
0100
0100
0100
0100
0100
0100
0100
0100
,  // measure 73
0010
0010
0100
0010
1000
0001
0100
0010
,  // measure 74
0001
0100
0001
0100
0010
0001
1000
0001
,  // measure 75
0100
0010
0001
0100
0001
0100
0001
0100
,  // measure 76
0010
0001
1000
0001
0100
0010
0001
0100
,  // measure 77
0001
0100
0010
0001
0100
0001
0100
0010
,  // measure 78
0100
0001
0100
0001
0100
0010
0001
1000
,  // measure 79
0001
0100
0010
0100
0001
0100
0001
0100
,  // measure 80
1000
0100
0010
0001
1000
0001
0100
0000
,  // measure 81
0001
0100
0010
0001
1000
0001
0100
0000
,  // measure 82
0010
0100
0001
0100
0001
0100
1000
0000
,  // measure 83
0010
0100
0001
1000
0001
0010
0100
0000
,  // measure 84
0010
0100
0001
0100
0001
0100
1000
0000
,  // measure 85
0001
0100
0010
0001
0100
0001
0100
0000
,  // measure 86
0100
0010
0001
1000
0001
0010
0100
0000
,  // measure 87
0001
0100
0001
1000
0001
0010
0100
0000
,  // measure 88
0100
0010
0001
0100
0001
0100
1000
0000
,  // measure 89
0001
0100
0010
0001
0100
0001
0100
0000
,  // measure 90
0100
0010
0001
0100
0001
0100
1000
0000
,  // measure 91
0010
0100
0001
1000
0001
0010
0100
0000
,  // measure 92
0010
0001
0001
1000
,  // measure 93
0100
0001
0100
1000
,  // measure 94
0001
0100
0001
0100
,  // measure 95
0001
0100
0010
0001
,  // measure 96
0100
0000
0000
0000
1000
0000
0000
0000
0001
0000
0000
0010
0000
0000
0100
0000
,  // measure 97
0001
0000
0000
0000
0100
0000
0000
0000
0010
0000
0000
0001
0000
0000
0100
0000
,  // measure 98
0001
0000
0000
0000
0100
0000
0000
0000
0010
0000
0000
0001
0000
0000
1000
0000
,  // measure 99
0010
0000
0100
0000
0000
0000
0001
0000
1000
0000
0000
0100
0000
0000
0000
0000
,  // measure 100
0100
0010
0100
0010
0100
0010
0100
0100
,  // measure 101
0010
0100
1000
0100
0001
0100
0001
1000
,  // measure 102
0001
0001
0100
0001
0100
1000
0100
0010
,  // measure 103
0100
0010
0100
0001
0100
0001
0100
0001
,  // measure 104
0100
1000
1000
1000
0001
0100
1000
1000
,  // measure 105
1000
0010
0100
0001
1000
0001
0010
0100
,  // measure 106
0001
1000
0001
0010
0100
0001
0100
0001
,  // measure 107
1000
0100
0001
0100
0001
0100
0001
0100
,  // measure 108
0100
1000
0010
0001
1000
0001
0100
0010
,  // measure 109
0001
0100
0001
0100
0001
0100
0001
1000
,  // measure 110
0100
0010
0001
0100
0010
0001
1000
0001
,  // measure 111
0100
0010
0001
0100
0001
0100
0001
1000
,  // measure 112
0100
0010
0100
0001
1000
0001
0010
0100
,  // measure 113
0001
1000
0001
0010
0100
0001
1000
0001
,  // measure 114
0010
0100
0010
0001
0100
0001
0100
0001
,  // measure 115
0100
0010
0001
0100
0001
0100
0010
0001
,  // measure 116
1000
0001
0100
0010
0001
0100
0001
0100
,  // measure 117
1000
1000
1000
1000
1000
0100
0010
0001
,  // measure 118
0100
0001
0100
0010
0001
1000
0001
0100
,  // measure 119
0010
0100
0010
0001
0100
0001
0100
0001
,  // measure 120
0100
0010
0001
1000
0001
0100
0010
0001
,  // measure 121
0100
0001
0100
0010
0001
1000
0001
0100
,  // measure 122
0010
0001
0100
0001
0100
0010
0001
1000
,  // measure 123
0001
0100
0010
0100
0001
0100
0001
0100
,  // measure 124
1000
0001
1000
0001
0010
0010
0001
0100
,  // measure 125
0001
0100
0010
0100
0001
1000
0001
0010
,  // measure 126
0100
0001
1000
0001
0010
0100
0001
1000
,  // measure 127
0001
0010
0100
0001
1000
0001
0010
0100
,  // measure 128
0001
1000
0100
0010
0001
1000
0001
0100
,  // measure 129
0010
0001
0100
0001
0100
0010
0001
1000
,  // measure 130
0001
0100
0010
0001
0100
0001
0100
0010
,  // measure 131
0100
0000
0001
0000
0100
0000
1000
0000
0001
0000
0100
0010
0001
0010
0100
0000
,  // measure 132
1000
0001
0100
0010
0100
0001
1000
0001
,  // measure 133
0010
0100
0001
1000
0001
0010
0100
0001
,  // measure 134
0010
0001
0100
0100
0001
0100
0010
0001
,  // measure 135
1000
0001
0100
0010
0001
0100
0001
0100
,  // measure 136
1000
0100
0001
0100
0001
1000
0001
0010
,  // measure 137
0100
0001
1000
0001
0010
0100
0001
1000
,  // measure 138
0001
0010
0100
0001
1000
0001
0010
0100
,  // measure 139
0001
1000
0001
0010
0001
1000
0001
0100
,  // measure 140
0010
0001
0100
0001
0100
0010
0001
0100
,  // measure 141
0001
0100
0010
0001
1000
0001
0100
0010
,  // measure 142
0001
0100
0001
0100
0001
0100
1000
0010
,  // measure 143
0001
0100
0010
0001
0100
0001
0100
0010
,  // measure 144
0001
0100
0001
0100
0010
0100
0001
0100
,  // measure 145
0010
0100
0001
0100
0001
0100
0001
0100
,  // measure 146
0010
0001
1000
0001
0100
0001
0100
0010
,  // measure 147
0100
0000
0001
1000
0100
0000
0001
0000
0100
0000
0001
0010
0100
0001
1000
0000
,  // measure 148
0001
0000
0000
0000
0100
0000
0000
0000
0010
0000
0010
0100
0000
0001
0100
0000
,  // measure 149
0100
0000
0000
0000
1000
0000
0000
0000
0001
0000
0010
0100
0000
0001
0100
0000
,  // measure 150
0100
0000
0000
0000
1000
0000
0000
0000
0001
0000
0100
0010
0000
0001
0100
0000
,  // measure 151
0100
0000
0000
0000
1000
0000
0000
0000
0001
0000
0100
0010
0000
0001
0100
0000
,  // measure 152
0001
0000
0000
0000
0100
0000
0000
0000
0010
0000
0100
0001
0000
0010
0001
0000
,  // measure 153
0100
0000
0000
0000
1000
0000
0000
0000
0001
0000
0100
0010
0000
0001
0100
0000
,  // measure 154
1000
0000
0000
0000
1000
0000
0000
0000
0001
0000
0010
0100
0000
0001
0100
0000
,  // measure 155
0011
0000
0000
0000
0110
0000
0000
0000
1100
0000
0000
0101
0000
0000
0110
0000
,  // measure 156
0101
0000
0000
0000
0110
0000
0000
0000
0101
0000
0000
0110
0000
0000
1001
0000
,  // measure 157
0101
0000
0000
0000
1100
0000
0000
0000
0110
0000
0000
0101
0000
0000
0101
0000
,  // measure 158
0110
0000
0000
0000
1100
0000
0000
0000
0110
0000
0000
0101
0000
0000
0110
0000
,  // measure 159
1100
0000
0000
0000
0101
0000
0000
0000
0110
0000
0000
0110
0000
0000
0110
0000
,  // measure 160
0001
1000
0001
0100
,  // measure 161
0001
0010
0100
0001
,  // measure 162
0010
0001
1000
0001
,  // measure 163
0100
0010
0100
0001
;
