#VERSION:0.83;
#TITLE:an apple a day;
#SUBTITLE:;
#ARTIST:Horsegiirl;
#TITLETRANSLIT:;
#SUBTITLETRANSLIT:;
#ARTISTTRANSLIT:;
#GENRE:;
#ORIGIN:;
#CREDIT:;
#BANNER:;
#BACKGROUND:;
#PREVIEWVID:;
#JACKET:;
#CDIMAGE:;
#DISCIMAGE:;
#LYRICSPATH:;
#CDTITLE:;
#MUSIC:horsegiirL - an apple a day (Audio).ogg;
#OFFSET:0.000000;
#SAMPLESTART:100.059883;
#SAMPLELENGTH:12.000000;
#SELECTABLE:YES;
#BPMS:0.000=170.000,
228.500=340.000,
232.000=170.000,
236.000=340.000,
237.500=170.000,
243.500=340.000,
247.500=170.000;
#STOPS:0.000=0.800,
228.500=0.200,
229.000=0.200,
230.000=0.200,
231.000=0.200,
236.000=0.200,
236.500=0.200,
243.500=0.200,
244.500=0.200,
245.500=0.200,
246.500=0.200,
252.000=0.300,
588.000=0.700;
#DELAYS:;
#WARPS:;
#TIMESIGNATURES:0.000=4=4;
#TICKCOUNTS:0.000=4;
#COMBOS:0.000=1;
#SPEEDS:0.000=1.000=0.000=0;
#SCROLLS:0.000=1.000;
#FAKES:;
#LABELS:0.000=Song Start;
#BGCHANGES:;
#KEYSOUNDS:;
#ATTACKS:
;

//---------------dance-single - ----------------
#NOTEDATA:;
#CHARTNAME:;
#STEPSTYPE:dance-single;
#DESCRIPTION:;
#CHARTSTYLE:;
#DIFFICULTY:Hard;
#METER:15;
#RADARVALUES:0.786315,1.100841,0.182217,0.000000,0.315738,1752.000000,1694.000000,58.000000,0.000000,0.000000,0.000000,0.000000,0.000000,0.000000,0.786315,1.100841,0.182217,0.000000,0.315738,1752.000000,1694.000000,58.000000,0.000000,0.000000,0.000000,0.000000,0.000000,0.000000;
#CREDIT:;
#NOTES:
// measure 0
0000
0000
0000
0000
,  // measure 1
0000
0000
0000
0000
,  // measure 2
0000
0000
0000
0000
,  // measure 3
0000
0000
0000
0000
,  // measure 4
0100
0000
0000
0000
0010
0000
0100
0000
0001
1000
0100
0001
0100
0001
1000
0001
,  // measure 5
0010
0000
0000
0000
0100
0000
0001
0000
0010
0100
0001
1000
0001
0010
0100
0001
,  // measure 6
0010
0000
0000
0000
0100
0000
0001
0000
0010
0100
0001
1000
0001
0010
0100
0001
,  // measure 7
0100
0000
0000
0000
0010
0000
0100
0000
0001
1000
0100
0001
1000
0001
0010
0100
,  // measure 8
0010
0000
0010
0000
0100
0000
0010
0000
0001
0100
1000
0010
0001
0010
0100
0001
,  // measure 9
1000
0000
0010
0000
1000
0000
0001
0000
0100
0001
0010
0100
0001
0010
0100
0010
,  // measure 10
0001
0000
0100
0000
0010
0000
0001
0000
0100
0010
0001
0010
0100
0001
0010
0010
,  // measure 11
0001
0000
0100
0000
0001
0000
0100
0000
1000
0001
0100
0001
0010
0001
0100
0001
,  // measure 12
0010
0000
0100
0000
0010
0000
0100
0000
1000
0000
0100
0000
0010
0000
0100
0010
,  // measure 13
0001
0000
0100
0000
0010
0000
0001
0000
0100
0000
0001
0000
0100
0000
0010
1000
,  // measure 14
0001
0000
1000
0000
0001
0000
0100
0000
0001
0000
0100
0000
0010
0000
0001
0100
,  // measure 15
0100
0000
0001
0000
0100
0000
0010
0000
0001
0000
0100
0010
0001
0000
0010
0001
,  // measure 16
0100
0000
1000
0000
0100
0000
0010
0000
0100
0001
0010
0001
0100
0001
0010
0001
,  // measure 17
1000
0010
0100
0010
0100
0010
0100
1000
,  // measure 18
0100
0010
0100
0010
0001
0100
0001
0100
,  // measure 19
0010
0000
0001
0000
1000
0000
0001
0000
0100
0001
0010
0100
0001
0010
0100
0010
,  // measure 20
0001
0100
0010
0001
1000
0001
0100
0010
,  // measure 21
0001
0100
0001
0100
0010
0001
0100
0001
,  // measure 22
0100
0000
0010
0000
0001
0000
1000
0000
0001
0010
0100
0010
0001
0010
0100
0010
,  // measure 23
0100
0010
0001
1000
0001
0100
0010
0100
,  // measure 24
0011
0000
0101
0000
0011
0000
0100
0010
,  // measure 25
0001
1000
0001
0100
0010
0000
0100
0001
,  // measure 26
0010
0100
0010
0001
0100
0000
0001
0100
,  // measure 27
0001
0100
0001
1000
0100
0000
0100
0001
,  // measure 28
0110
0000
1010
0000
0011
0000
0100
0010
,  // measure 29
1000
0001
0100
0001
0010
0000
0100
0010
,  // measure 30
0001
0100
0001
1000
0100
0000
0100
0001
,  // measure 31
0101
0000
0010
0100
0110
0000
0100
0001
,  // measure 32
0100
0010
0001
0100
0001
1000
0100
0010
,  // measure 33
0100
0001
0010
0100
1000
0100
0010
0100
,  // measure 34
0100
0100
0001
0100
1000
0010
0100
0010
,  // measure 35
0100
0001
0010
0010
0001
0100
0001
0100
,  // measure 36
0010
0001
1000
0001
0100
0010
0001
0100
,  // measure 37
0001
0100
0010
0001
1000
0001
0100
0010
,  // measure 38
0001
0100
0001
0100
0010
0001
1000
0001
,  // measure 39
0100
0010
0001
0100
0001
0100
1000
0010
,  // measure 40
0100
0001
1000
0000
0100
0000
0001
1000
,  // measure 41
0100
0001
0010
0000
0100
0000
0000
0100
,  // measure 42
0010
0100
0001
0000
0010
0000
0001
1000
,  // measure 43
0001
0100
1000
0000
0010
0000
0001
0100
,  // measure 44
0001
1000
0100
0000
0010
0000
0001
1000
,  // measure 45
0001
0100
1000
0000
0100
0000
0010
0001
,  // measure 46
0100
0001
1000
0001
0100
0000
0100
0010
,  // measure 47
0001
1000
0001
0100
1000
0000
0000
0000
,  // measure 48
1000
0001
0100
0000
0010
0000
0100
0000
,  // measure 49
0001
1000
0000
0100
0000
0001
0000
0100
,  // measure 50
0000
0001
0010
0000
0100
0000
0010
0000
,  // measure 51
0100
0001
0000
0010
0000
0100
0000
0001
,  // measure 52
0100
0001
0010
0000
0100
0000
0001
0000
,  // measure 53
1000
0100
0000
0001
0000
0010
0000
0100
,  // measure 54
0000
0100
0011
0000
0011
0000
0110
0000
,  // measure 55
0010
0001
0100
0001
0100
0001
1000
0100
,  // measure 56
0110
0110
0110
0110
,  // measure 57
0110
0110
0110
0000
0110
0000
0110
0000
,  // measure 58
0110
0110
0000
0110
0000
0110
0000
0110
,  // measure 59
0110
0110
0000
0110
0110
0110
0110
0001
,  // measure 60
0100
0001
1000
0001
0010
0000
0110
0110
,  // measure 61
0000
0110
0000
0110
0000
0110
0000
0110
,  // measure 62
0110
0001
0100
0010
0001
1000
0001
0100
,  // measure 63
1000
0010
0001
1000
0001
0100
1000
0000
,  // measure 64
0100
0010
0001
1000
0001
0100
1000
0000
,  // measure 65
0010
0001
0100
0001
1000
0100
0100
0000
,  // measure 66
0100
0010
0001
1000
0001
0100
1000
0000
,  // measure 67
0100
0010
0001
0100
0001
0100
1000
0000
,  // measure 68
0100
0010
0001
0100
0001
0100
1000
0000
,  // measure 69
0100
0010
0001
1000
0001
0100
1000
0010
,  // measure 70
0001
1000
0001
0100
0010
0001
1000
0001
,  // measure 71
0100
0010
0100
0000
0101
0000
0101
0000
,  // measure 72
0101
0000
0101
0000
0101
0000
1001
0101
,  // measure 73
0000
0101
0000
0101
0000
0101
0101
0000
,  // measure 74
0110
0000
0110
0000
0101
0101
0000
0101
,  // measure 75
0000
1100
1100
1100
1100
0100
0010
0001
,  // measure 76
0100
0001
0100
0010
0100
0001
0010
0010
,  // measure 77
0001
1000
0001
0100
1000
0010
0001
1000
,  // measure 78
0001
0100
0010
0001
0100
0001
0100
0010
,  // measure 79
0001
1000
0001
0100
1000
0010
0001
0000
,  // measure 80
0100
1000
0001
0100
0001
1000
0001
0000
,  // measure 81
0010
0100
0001
1000
0001
0010
0100
0000
,  // measure 82
0100
0010
0001
1000
0001
0100
1000
0000
,  // measure 83
0001
0100
0001
0010
0100
0010
1000
0000
,  // measure 84
0100
1000
0100
1000
0010
1000
0010
0000
,  // measure 85
0100
0010
0001
1000
0001
0100
1000
0010
,  // measure 86
0100
0010
0001
1000
0001
0100
0010
0001
,  // measure 87
1000
0001
0100
0010
0100
0001
1000
0100
,  // measure 88
0010
0100
0010
0001
1000
0001
0100
0010
,  // measure 89
0001
0100
0001
0100
0010
0001
1000
0001
,  // measure 90
0100
0010
0001
0100
0001
0100
0010
0001
,  // measure 91
1000
0000
0001
0010
0100
0000
0010
0000
0001
0000
0100
0000
0001
0000
0100
0000
,  // measure 92
0010
0001
1000
0001
0100
0010
0001
0100
,  // measure 93
0001
0100
0010
0001
1000
0001
0100
0010
,  // measure 94
0001
0100
0001
0100
0010
0001
1000
0001
,  // measure 95
0100
0010
0001
0100
0100
1000
0100
0010
,  // measure 96
0001
0100
0001
0001
0010
0100
0001
0100
1000
0000
0001
0000
0100
0000
0001
0000
,  // measure 97
0100
0010
0001
1000
0001
0100
0001
0010
1000
0000
0001
0000
0100
0000
0010
0000
,  // measure 98
0100
0010
0001
1000
0001
0100
0010
0100
1000
0000
0100
0000
0001
0000
0100
0000
,  // measure 99
0001
0010
0100
0001
1000
0001
0010
0100
0001
0000
0010
0000
0001
0000
0100
0010
,  // measure 100
1000
0010
0001
0100
0010
0100
0001
0100
1000
0000
0100
0000
0010
0000
0001
0100
,  // measure 101
0010
0001
0100
0001
0100
0001
0100
1000
0100
0000
0010
0000
0100
0000
0001
1000
,  // measure 102
0100
0001
0100
1000
0100
0001
0010
0100
0001
0000
0010
0000
0100
0000
0010
0000
,  // measure 103
0001
0100
0001
0100
0001
1000
0100
0010
,  // measure 104
0100
0000
0001
1000
0001
0100
0001
0000
,  // measure 105
0010
0001
0100
0010
0100
0001
0100
1000
,  // measure 106
0100
0000
1000
0001
0100
0010
0001
0000
,  // measure 107
1000
0000
0010
0100
0010
0001
0100
0001
,  // measure 108
0010
0000
0001
1000
0001
0100
1000
0000
,  // measure 109
0001
0000
0001
0100
1000
0100
0001
0100
,  // measure 110
0010
0000
0100
0010
0001
1000
0001
0100
,  // measure 111
0010
0000
0000
0100
0001
1000
0001
0000
,  // measure 112
0010
0000
0100
0001
1000
0001
0010
0000
,  // measure 113
0010
0000
0000
0100
0001
1000
0100
0000
,  // measure 114
0010
0000
0001
1000
0001
0100
1000
0000
,  // measure 115
0100
0000
0000
1000
0001
0100
0010
0000
,  // measure 116
0100
0000
0001
1000
0001
0100
1000
0000
,  // measure 117
0010
0000
0010
0100
0001
1000
0001
0100
,  // measure 118
0010
0000
0100
0001
1000
0001
0010
0100
,  // measure 119
0001
0000
0000
0000
1000
0100
0001
0000
,  // measure 120
0010
0000
0001
1000
0001
0100
1000
0000
,  // measure 121
0100
0000
0000
0010
0001
0100
1000
0000
,  // measure 122
0010
0000
0001
1000
0001
0100
1000
0000
,  // measure 123
0100
0000
0000
0010
0001
0100
1000
0000
,  // measure 124
0010
0000
0001
1000
0001
0100
1000
0000
,  // measure 125
0010
0000
0100
0001
1000
0001
0010
0100
,  // measure 126
0001
0000
0100
0010
0001
1000
0001
0100
,  // measure 127
1000
0000
0000
0000
0100
0000
0001
0000
0010
0000
0100
0000
0100
0000
0001
1000
,  // measure 128
0000
0100
0001
0000
0010
0000
0100
0000
0001
0000
1000
0000
0100
0000
0001
0100
,  // measure 129
0000
0010
0100
0000
0001
0000
1000
0000
0100
0000
0001
0000
0010
0000
0100
0001
,  // measure 130
0000
1000
0100
0000
0001
0000
0010
0000
0100
0000
0010
0000
0100
0000
0010
0001
,  // measure 131
0000
0010
0100
0000
0001
0000
0010
0000
0100
0000
0001
0000
0100
0000
0010
0001
,  // measure 132
0000
0100
0001
0000
0001
0000
0010
0000
0000
0000
1000
0000
0100
0000
0010
0001
,  // measure 133
0000
0100
0001
0000
0010
0000
0100
0000
0001
0000
1000
0000
0100
0000
0010
0100
,  // measure 134
0000
0001
1000
0000
0100
0000
0001
0000
0010
0000
0100
0000
0001
0000
1000
0100
,  // measure 135
0000
0001
0010
0000
0100
0000
0010
0000
0100
0000
0001
0000
0010
0000
0001
0100
,  // measure 136
0000
0100
1000
0000
0001
0000
0010
0000
0100
0000
0010
0000
0010
0000
0100
0001
,  // measure 137
0000
0001
0010
0000
0010
0000
0001
0000
1000
0000
0100
0000
0010
0000
0010
0001
,  // measure 138
0000
0100
0001
0000
1000
0000
0100
0000
0001
0000
0010
0000
0100
0000
0001
0100
,  // measure 139
0000
0001
1000
0000
0100
0000
0001
0000
0010
0000
0100
0000
0001
0000
0010
0100
,  // measure 140
0000
0001
1000
0000
0100
0000
0001
0000
0010
0000
0100
0000
0001
0000
1000
0100
,  // measure 141
0000
0001
0100
0000
0010
0000
0100
0000
0001
0000
1000
0000
0100
0000
0001
0010
,  // measure 142
0000
0100
0001
0000
1000
0000
0100
0000
0001
0000
0010
0000
0100
0000
0010
0100
,  // measure 143
0010
0000
0100
0000
0001
0000
1000
0000
0001
0000
0100
0000
0010
0000
0100
0001
,  // measure 144
0000
0010
0100
0000
0001
0000
1000
0000
0100
0000
0001
0000
0010
0001
0100
0001
,  // measure 145
0000
0010
0100
0001
0001
0100
0010
0001
0100
0001
0100
0010
0001
1000
0001
0100
,  // measure 146
1000
0100
0010
0100
0001
0100
0010
0001
1000
0001
0100
0010
0001
1000
0001
0100
,  // measure 147
1000
0000
0100
0000
0000
0000
0001
0010
0000
0100
0001
0000
1000
0000
0100
0000
,  // measure 148
0000
0000
0001
0000
0010
0000
0100
0001
0000
1000
0100
0000
0001
0000
0010
0000
,  // measure 149
0001
0000
0100
0000
0010
0000
0100
0001
0000
0100
0010
0000
0001
0000
1000
0000
,  // measure 150
0100
0000
0100
0000
0010
0000
0100
0001
0000
0100
0010
0000
0001
0000
1000
0000
,  // measure 151
0100
0000
0100
0000
0010
0000
0001
0100
0000
0010
0100
0000
0001
0000
1000
0000
,  // measure 152
0100
0000
0100
0000
0010
0000
0100
0001
0000
0100
0010
0000
0001
0000
1000
0000
,  // measure 153
0100
0000
0100
0000
0010
0000
0001
0100
0000
0010
0100
0000
0001
0000
1000
0000
,  // measure 154
0100
0000
0100
0000
0010
0000
0100
0001
0000
0100
0010
0000
0001
0000
0100
0000
,  // measure 155
1000
0000
0100
0000
0001
0000
0100
0010
0000
0001
0100
0000
0100
0000
0010
0000
,  // measure 156
0000
0000
0001
0000
0010
0000
0100
0001
0000
1000
0100
0000
0001
0000
0010
0000
,  // measure 157
0100
0000
0100
0000
0010
0000
0100
0001
0000
0100
0010
0000
0001
0000
0100
0000
,  // measure 158
1000
0000
0010
0000
0100
0000
0001
0010
0000
0100
0001
0000
1000
0000
0100
0000
,  // measure 159
0001
0000
0010
0000
0100
0000
0001
0100
0000
0001
0010
0000
0100
0000
0001
0000
,  // measure 160
1000
0000
0100
0001
0000
0010
0100
0000
0001
0000
1000
0000
0100
0000
0001
0000
,  // measure 161
0010
0000
0100
0000
0010
0000
0100
0001
0000
1000
0100
0000
0001
0000
0010
0000
,  // measure 162
0100
0000
0001
0000
0100
0000
0010
0001
0000
0100
0010
0000
0001
0000
0100
0000
,  // measure 163
1000
0000
0100
0000
0000
0010
0000
0100
,  // measure 164
0001
0000
1000
0000
0000
0001
0000
0100
,  // measure 165
0010
0000
0100
0000
0000
0001
0000
0010
,  // measure 166
0100
0000
0000
0000
0001
0000
0000
0000
0000
0000
0001
0000
0000
0000
0100
0010
,  // measure 167
0100
0000
0000
0000
0000
0100
0000
1000
,  // measure 168
0001
0000
0100
0000
0000
0100
0000
0010
,  // measure 169
0001
0000
0100
0000
0000
0100
0000
0010
,  // measure 170
0001
0000
0100
0010
0000
0100
0010
0000
,  // measure 171
0010
0001
0100
0010
0001
0010
0100
0001
,  // measure 172
0100
0010
0100
0001
1000
0001
0100
0001
,  // measure 173
0100
0001
0100
0001
1000
0001
0010
0100
,  // measure 174
0001
0010
0001
0100
0001
0100
0010
0001
,  // measure 175
1000
0001
0100
0010
0001
0100
0001
0100
,  // measure 176
0001
0100
0001
0100
0001
0100
0010
0001
,  // measure 177
1000
0001
0100
0010
0001
0100
0001
0100
,  // measure 178
0010
0000
0001
0000
1000
0000
0001
0000
0100
0000
0010
0000
0001
0100
0001
0000
,  // measure 179
1000
0010
0100
0001
0100
0001
0100
0001
,  // measure 180
1000
0001
0010
0100
0100
0100
1000
1000
,  // measure 181
0100
0100
1000
0100
1000
1000
0100
0001
,  // measure 182
0100
0001
0100
0010
0100
0001
1000
0001
,  // measure 183
0010
0100
0001
0100
0010
0001
1000
0001
,  // measure 184
0100
0010
0001
0100
0001
0100
0001
0010
,  // measure 185
0001
0100
0010
0001
0100
0001
0100
0010
,  // measure 186
0001
1000
0001
0100
0010
0001
0100
0001
,  // measure 187
0100
0010
0001
1000
0001
0100
0010
0001
,  // measure 188
0100
0001
0100
0010
0001
1000
0001
0100
,  // measure 189
0010
0001
0100
0001
0100
1000
0010
0001
,  // measure 190
0100
0001
0100
0010
0001
0100
0001
0100
,  // measure 191
0010
0001
1000
0001
0100
0010
0001
0100
,  // measure 192
0001
0100
0010
0001
0100
0001
0100
0010
,  // measure 193
0001
1000
0001
0100
0010
0001
0100
0001
,  // measure 194
0100
0010
0001
1000
0001
0100
0010
0001
,  // measure 195
0100
0001
0100
0001
0100
0001
0010
0001
,  // measure 196
0100
0010
0001
0100
0001
0100
0010
0001
,  // measure 197
1000
0001
0100
0010
0001
0100
0001
0100
,  // measure 198
0010
0001
1000
0001
0100
0010
0001
0100
,  // measure 199
0001
0100
0010
0001
1000
0001
0100
0010
,  // measure 200
0001
0100
0001
0100
0010
0001
1000
0001
,  // measure 201
0100
0010
0001
0100
0001
0100
0010
0001
,  // measure 202
1000
0001
0100
0010
0001
0100
0001
1000
,  // measure 203
0100
0000
0010
0000
0100
0000
0001
0010
0000
0100
0001
0000
1000
0000
0100
0000
,  // measure 204
0001
0000
0010
0000
0100
0000
0001
0010
0000
0100
0001
0000
1000
0000
0100
0000
,  // measure 205
0001
0000
0010
0000
0100
0000
0001
0100
0000
0010
0100
0000
0001
0000
1000
0000
,  // measure 206
0001
0000
0100
0000
0010
0000
0100
0001
0000
0010
0100
0000
0001
0000
1000
0000
,  // measure 207
0100
0000
0001
0000
0100
0000
0010
0100
0000
0001
1000
0000
0100
0000
0001
0000
,  // measure 208
0010
0000
0100
0000
0001
0000
1000
0100
0000
0010
0100
0000
0001
0000
1000
0000
,  // measure 209
0100
0000
0001
0000
0010
0000
0100
0001
0000
1000
0100
0000
0001
0000
0010
0000
,  // measure 210
0001
0000
0100
0000
0010
0000
0100
0001
0000
0100
0010
0000
0001
0000
1000
0000
,  // measure 211
0100
0000
0010
0000
0100
0000
0001
1000
0000
0100
0001
0000
0010
0000
0100
0000
,  // measure 212
0001
0000
1000
0000
0100
0000
0001
0010
0000
0100
0001
0000
1000
0000
0100
0000
,  // measure 213
0001
0000
0010
0000
0100
0000
0001
0010
0000
0100
0001
0000
1000
0000
0100
0000
,  // measure 214
0001
0000
0100
0000
0001
0000
0010
0100
0000
0001
0010
0000
0100
0000
0001
0000
,  // measure 215
1000
0000
0010
0000
0001
0000
0100
0010
0000
0001
0100
0000
0010
0000
0100
0000
,  // measure 216
0001
0000
1000
0000
0100
0000
0001
0010
0000
0100
0001
0000
1000
0000
0001
0000
,  // measure 217
0010
0000
1000
0000
0001
0000
0100
0010
0000
0001
0100
0000
0001
0000
0100
0000
,  // measure 218
1000
0000
0100
0000
0010
0000
0001
0100
0010
0001
0100
0010
0001
1000
0001
0100
,  // measure 219
1000
0000
0000
0000
;
