#TITLE:ambulance;
#SUBTITLE:;
#ARTIST:CeCe Natalie;
#TITLETRANSLIT:;
#SUBTITLETRANSLIT:;
#ARTISTTRANSLIT:;
#GENRE:;
#CREDIT:;
#BANNER:;
#BACKGROUND:;
#LYRICSPATH:;
#CDTITLE:;
#MUSIC:Ambulance.ogg;
#OFFSET:0.000000;
#SAMPLESTART:100.059883;
#SAMPLELENGTH:12.000000;
#SELECTABLE:YES;
#BPMS:0.000000=115.000000
;
#STOPS:
;
#BGCHANGES:;
#KEYSOUNDS:;
#ATTACKS:;

//---------------dance-single - ----------------
#NOTES:
     dance-single:
     :
     Hard:
     11:
     0.495073,0.509273,0.000000,0.081702,0.153190,509.000000,509.000000,0.000000,12.000000,0.000000,0.000000,0.495073,0.509273,0.000000,0.081702,0.153190,509.000000,509.000000,0.000000,12.000000,0.000000,0.000000:
// measure 0
0000
0000
0000
0000
,  // measure 1
0000
0000
0000
0000
,  // measure 2
0000
0000
0000
0000
,  // measure 3
0000
0000
0000
0000
,  // measure 4
1000
0100
0001
0100
0001
0010
0100
0001
,  // measure 5
0100
0000
0001
0000
1000
0000
0100
0010
0100
0000
0010
0000
0100
0000
0000
0000
,  // measure 6
0100
0000
0010
0000
0001
0000
0100
0000
0001
0000
0100
0000
0010
0000
1000
0001
,  // measure 7
0100
0100
0010
0100
0001
0100
1000
0000
,  // measure 8
0100
0000
0010
0000
0100
0001
0010
0000
0100
0000
0010
0100
0001
0020
0000
0030
,  // measure 9
0000
0010
0001
0100
0001
1000
0200
0000
,  // measure 10
0300
0100
0010
0001
0100
1000
0100
0000
,  // measure 11
0010
0001
0100
0001
0100
0100
2000
0000
,  // measure 12
3000
0100
0001
0100
0001
0010
0200
0000
,  // measure 13
0300
0000
0010
0100
0001
0000
0100
0010
0100
0000
0010
0000
0200
0000
0000
0000
,  // measure 14
0300
0010
0001
0100
0001
0100
2000
0000
,  // measure 15
3000
0010
0001
0100
0001
0100
0001
0100
,  // measure 16
0010
0000
0100
0001
0010
0000
0010
0000
0001
0000
0100
0000
1000
0000
0000
0000
,  // measure 17
0100
0010
0001
0100
0001
0100
1000
0100
,  // measure 18
0010
0000
0100
0000
0001
0000
0100
0000
0001
0000
1000
0000
0100
0000
0010
0100
,  // measure 19
0001
1000
0100
0010
0001
0100
1000
0000
,  // measure 20
0000
0010
0001
0100
0001
0100
2000
0000
,  // measure 21
3000
0000
0100
0000
0010
0000
0001
0100
1000
0000
0010
0100
0001
0000
0000
0000
,  // measure 22
0001
0000
0100
0000
0010
0100
0001
0000
1000
0000
0010
0000
0001
0000
0100
0000
,  // measure 23
0000
0000
0010
0100
0001
0000
0100
0000
0010
0000
0100
0000
1000
0000
0010
0000
,  // measure 24
0100
0000
0001
1000
0100
0000
0010
0000
0001
0000
0100
0000
1000
0000
0000
0000
,  // measure 25
0010
0100
0010
0001
0100
0010
1000
0010
,  // measure 26
0001
0000
0100
0000
0010
0000
0001
0100
1000
0000
0010
0000
0100
0000
0010
0000
,  // measure 27
0100
0001
1000
0100
0001
0000
0100
0000
0010
0000
0001
0000
0200
0000
0300
0000
,  // measure 28
0001
0100
0010
0100
0001
0100
1000
0100
,  // measure 29
0001
0010
0010
0100
0010
0001
1000
0100
,  // measure 30
0010
0001
0100
1000
0100
0010
0001
0100
,  // measure 31
0001
0100
0010
0001
1000
0001
0100
0010
,  // measure 32
0100
0000
0010
0000
0100
0000
0010
0000
0001
0000
0100
0010
0001
0000
0100
0000
,  // measure 33
1000
0010
0100
0100
0100
0200
0300
0010
,  // measure 34
0100
0000
0100
0000
0010
0100
0001
0010
0100
0000
0010
0000
0100
0000
0010
0000
,  // measure 35
0010
0001
0100
0001
0100
1000
0000
0100
,  // measure 36
0010
0000
0100
0000
0000
0000
0010
0000
0100
0000
0010
0100
0001
0000
1000
0100
,  // measure 37
0001
0010
0100
0010
0001
0001
0000
1000
,  // measure 38
0100
0000
0100
0000
0010
0100
0001
1000
0001
0000
0010
0000
0100
0000
0010
0000
,  // measure 39
0100
0010
0100
0001
0100
1000
0000
0001
,  // measure 40
0100
0000
1000
0000
0010
0001
0100
0000
0100
0000
0010
0100
0001
0020
0000
0030
,  // measure 41
0000
0010
0001
0100
0001
0100
1000
0000
,  // measure 42
0100
0000
0010
0000
0001
0000
1000
0000
0100
0010
0000
0001
1000
0000
0010
0000
,  // measure 43
0000
0000
0100
0000
0001
1000
0100
0001
0010
0000
0100
0000
0001
0000
0000
0000
,  // measure 44
0100
0010
0001
0100
0001
1000
0100
0000
,  // measure 45
0000
0001
0010
0100
0001
0100
2000
0000
,  // measure 46
3000
0010
0001
0100
0001
1000
0100
0000
,  // measure 47
0010
0100
0001
0100
0001
0100
1000
0100
,  // measure 48
0001
0000
1000
0100
0001
0000
0010
0000
0001
0000
0100
0000
1000
0000
0000
0000
,  // measure 49
0100
0010
0001
0100
0001
0100
1000
0100
,  // measure 50
0010
0000
0001
0010
0100
0000
0010
0100
0001
0000
0100
0000
1000
0000
0100
0000
,  // measure 51
0010
0000
0100
0000
0010
0000
1000
0001
0100
0000
0010
0000
0100
0000
0000
0000
,  // measure 52
0000
0010
0001
0100
0001
0100
2000
0000
,  // measure 53
3000
0000
0010
0000
0100
0000
0001
0100
1000
0000
0010
0000
0100
0000
0000
0000
,  // measure 54
0010
0000
0100
0000
0010
0001
0100
0000
1000
0000
0100
0000
0001
0000
0010
0000
,  // measure 55
0000
0000
0100
0010
0001
0000
0100
0010
0001
0000
0100
0000
1000
0000
0010
0000
,  // measure 56
0100
0000
0010
0100
0001
0000
0100
0000
0010
0000
0100
0000
1000
0000
0000
0000
,  // measure 57
0100
0010
0001
0100
0001
0100
1000
0010
,  // measure 58
0100
0001
0010
0000
0010
0000
0001
0100
1000
0000
0100
0000
0010
0000
0100
1000
,  // measure 59
0001
0010
0100
0001
1000
0000
0100
0000
0010
0000
0001
0000
0100
0000
0000
0000
,  // measure 60
0001
0100
0010
0100
0001
0100
1000
0001
,  // measure 61
0100
0010
0100
0001
1000
0001
0010
0100
,  // measure 62
0001
0010
0100
0010
0001
1000
0001
0100
,  // measure 63
0010
0001
0100
0001
0100
0010
0001
0100
,  // measure 64
0001
0100
0010
0100
1000
0100
0010
0100
,  // measure 65
0001
0100
0010
0001
0100
0001
0100
0010
,  // measure 66
0001
0100
0001
0100
0010
0001
0100
0001
,  // measure 67
0100
1000
0100
0100
0010
0010
0100
0100
,  // measure 68
0001
0000
0000
0000
;
