#VERSION:0.83;
#TITLE:all the things she said;
#SUBTITLE:;
#ARTIST:t.A.T.u.;
#TITLETRANSLIT:;
#SUBTITLETRANSLIT:;
#ARTISTTRANSLIT:;
#GENRE:;
#ORIGIN:;
#CREDIT:;
#BANNER:;
#BACKGROUND:;
#PREVIEWVID:;
#JACKET:;
#CDIMAGE:;
#DISCIMAGE:;
#LYRICSPATH:;
#CDTITLE:;
#MUSIC:All The Things She Said.ogg;
#OFFSET:0.000000;
#SAMPLESTART:100.059883;
#SAMPLELENGTH:12.000000;
#SELECTABLE:YES;
#BPMS:0.000=90.000;
#STOPS:0.000=0.900;
#DELAYS:;
#WARPS:;
#TIMESIGNATURES:0.000=4=4;
#TICKCOUNTS:0.000=4;
#COMBOS:0.000=1;
#SPEEDS:0.000=1.000=0.000=0;
#SCROLLS:0.000=1.000;
#FAKES:;
#LABELS:0.000=Song Start;
#BGCHANGES:;
#KEYSOUNDS:;
#ATTACKS:
;

//---------------dance-single - ----------------
#NOTEDATA:;
#CHARTNAME:;
#STEPSTYPE:dance-single;
#DESCRIPTION:;
#CHARTSTYLE:;
#DIFFICULTY:Hard;
#METER:12;
#RADARVALUES:0.460832,0.515072,0.009418,0.032965,0.635746,685.000000,683.000000,2.000000,7.000000,0.000000,0.000000,0.000000,0.000000,0.000000,0.460832,0.515072,0.009418,0.032965,0.635746,685.000000,683.000000,2.000000,7.000000,0.000000,0.000000,0.000000,0.000000,0.000000;
#CREDIT:;
#NOTES:
// measure 0
0000
0000
0000
0000
,  // measure 1
0000
0000
0000
0000
,  // measure 2
0000
0000
0000
0000
,  // measure 3
0000
0000
0000
0000
,  // measure 4
0000
0000
0000
0000
1000
0100
0001
0100
0001
0000
0001
1000
0001
0100
1000
0000
,  // measure 5
0010
0100
0001
0100
1000
0000
0010
0100
0001
1000
0001
0000
0010
0100
0001
0100
,  // measure 6
1000
0000
0000
0000
0010
0100
0001
0100
1000
0000
0010
0100
0001
0100
1000
0000
,  // measure 7
0010
0100
0001
0100
1000
0000
0010
0100
0001
0100
1000
0000
0010
0100
0001
0100
,  // measure 8
1000
0001
0100
0010
,  // measure 9
0100
2000
0000
0000
0000
0000
0000
0000
,  // measure 10
0000
0000
0000
0000
,  // measure 11
0000
0000
0000
0000
,  // measure 12
3000
0000
0010
0100
0001
0100
1000
0010
0000
0000
0010
0100
0001
0100
1000
0001
,  // measure 13
0000
0000
0100
0010
0100
0001
0100
1000
0000
0000
0000
0100
0001
1000
0001
0010
,  // measure 14
0000
0000
0000
0000
0010
0001
0100
1000
0000
0000
0000
0010
0100
0001
0100
1000
,  // measure 15
0000
0000
0100
0010
0100
0001
0100
1000
0000
0000
0100
0010
0100
0001
0100
1000
,  // measure 16
0000
0000
0010
0100
0001
0100
0001
0000
1000
0000
0000
0000
0100
0001
1000
0100
,  // measure 17
0000
0000
0100
0010
0100
0001
0100
0000
0100
0000
0100
0010
0100
0001
0100
1000
,  // measure 18
0000
0000
0001
0010
0100
0001
0100
1000
0000
0000
0100
0010
0100
0001
0100
1000
,  // measure 19
0000
0000
0000
0000
0010
0001
0100
1000
0000
0000
0000
0100
0001
0100
1000
0010
,  // measure 20
0000
0000
0000
0000
0010
0001
0100
1000
0000
0000
0000
0100
0010
0001
0100
1000
,  // measure 21
0000
0000
0000
0000
0010
0100
0001
0100
1000
0000
0010
0100
0001
1000
0001
0000
,  // measure 22
0010
0100
0001
1000
0001
0000
0010
0100
0001
1000
0001
0000
0010
0100
0001
1000
,  // measure 23
0001
0000
0000
0000
0010
0100
0001
0100
1000
0000
0010
0100
0001
0100
1000
0000
,  // measure 24
0010
0100
0001
0100
1000
0000
0010
0100
0001
0100
1000
0000
0010
0100
0001
0100
,  // measure 25
1000
0100
0010
0100
,  // measure 26
0010
0002
0000
0000
0000
0000
1000
0000
,  // measure 27
1003
1000
0001
0100
,  // measure 28
0001
0000
0010
0000
0000
0000
0000
0000
0001
1000
0001
0100
1000
0000
0010
0100
,  // measure 29
0001
1000
0001
0000
0000
0000
0100
0010
0100
0100
1000
0000
0010
0100
0001
0100
,  // measure 30
1000
0000
0000
0000
0010
0100
0001
1000
0001
0000
0100
0010
0001
0100
1000
0000
,  // measure 31
0001
1000
0001
0100
0010
0000
0100
0001
0000
0010
0001
0100
1000
0000
0010
0100
,  // measure 32
0000
0001
1000
0100
0001
0000
0010
0100
0000
0001
1000
0100
0001
0000
1000
0100
,  // measure 33
0000
0001
0010
0100
0001
0000
0100
1000
0000
0010
0100
0001
1000
0000
0100
0001
,  // measure 34
0000
0010
0100
0001
1000
0000
0100
0001
0000
0010
0100
0001
1000
0000
0001
0010
,  // measure 35
0000
0100
0001
1000
0001
0000
1000
0100
0000
0001
0100
0001
1000
0000
0100
0001
,  // measure 36
0000
0010
0100
0001
1000
0000
0010
0100
0000
0001
0100
0001
0010
0000
1000
0100
,  // measure 37
0000
0001
0100
0001
0010
0000
1000
0100
0000
0001
0100
0001
1000
0000
0100
0001
,  // measure 38
0000
0010
0100
0001
0100
0000
0010
0100
0000
0001
1000
0100
0001
0000
0100
1000
,  // measure 39
0000
0000
0010
0100
0001
0000
1000
0000
0100
0000
0010
0001
1000
0001
0100
1000
,  // measure 40
0000
0000
0100
0010
0100
0001
1000
0100
0000
0000
0010
0001
0100
0001
0100
1000
,  // measure 41
0000
0000
0010
0001
0100
0001
0100
1000
0000
0000
0010
0001
0100
0001
0100
1000
,  // measure 42
0000
0000
0100
0010
0100
0001
0100
1000
0000
0000
0100
0010
0100
0001
0100
1000
,  // measure 43
0000
0000
0001
0100
0010
0000
0001
0000
0100
0000
1000
0000
0010
0001
0100
1000
,  // measure 44
0000
0000
0010
0001
0100
0010
0100
0001
0000
0000
0100
0010
0100
0001
0100
1000
,  // measure 45
0000
0000
0010
0001
0100
0001
1000
0100
0000
0000
0010
0001
0100
0001
0100
1000
,  // measure 46
0000
0000
0100
0010
0100
0001
0100
1000
0000
0000
0010
0100
0001
0000
0100
0000
,  // measure 47
0010
0000
0000
0000
0100
0001
1000
0001
0010
0000
0100
0001
1000
0001
0010
0000
,  // measure 48
0100
0001
1000
0001
0010
0000
0100
0001
1000
0001
0010
0000
0100
0001
1000
0001
,  // measure 49
0010
0000
0000
0000
0001
0100
0001
0100
1000
0000
0001
0100
0001
0100
1000
0000
,  // measure 50
0001
0100
0001
0100
1000
0000
0001
0100
0001
1000
0100
0000
0001
0100
0001
0100
,  // measure 51
1000
0100
0001
0100
,  // measure 52
0010
0002
0000
0000
0000
0000
1000
0000
,  // measure 53
1003
0010
0100
0001
,  // measure 54
1000
0000
0100
0000
0000
0000
0000
0000
0010
0100
0001
1000
0001
0000
0010
0100
,  // measure 55
0001
1000
0001
0000
0000
0000
0010
0100
0001
0100
1000
0000
0010
0100
0001
0100
,  // measure 56
1000
0000
0000
0000
0001
0100
0001
0100
1000
0000
0001
0100
0001
0100
1000
0000
,  // measure 57
0010
0100
0001
0100
1000
0000
0010
0100
0001
1000
0001
0000
0000
0000
0000
0000
,  // measure 58
0100
1000
0001
0000
0010
0100
0001
0100
1000
0000
0010
0100
0001
0100
1000
0000
,  // measure 59
0000
0000
0000
0000
0110
0000
0000
0000
0010
0000
0000
0000
0001
0100
1000
0000
,  // measure 60
0010
0000
0000
0000
0100
0000
0000
0000
0010
0000
0000
0000
0001
0100
1000
0000
,  // measure 61
0001
1000
0001
0100
,  // measure 62
0010
0200
0000
0000
0000
0000
0000
0000
,  // measure 63
0000
0000
0300
0000
1001
0000
0000
0000
0010
0000
0000
0000
0001
0100
1000
0000
,  // measure 64
0001
0000
0000
0000
0100
0000
0000
0000
0010
0000
0000
0000
0001
0100
1000
0000
,  // measure 65
0100
1000
0001
0100
,  // measure 66
0010
0002
0000
0000
0000
0000
0000
0000
,  // measure 67
0003
0000
0000
0000
1000
0100
0001
0100
0001
0000
0010
0100
0001
0100
1000
0000
,  // measure 68
0010
0100
0001
0100
1000
0000
0010
0100
0001
1000
0001
0000
0010
0100
0001
1000
,  // measure 69
0001
0000
0000
0000
0010
0100
0001
1000
0001
0000
0100
0010
0001
0100
0001
0000
,  // measure 70
0010
0100
0001
1000
0001
0000
0010
0100
0001
1000
0001
0000
0010
0100
0001
1000
,  // measure 71
0001
1000
0001
0100
,  // measure 72
0010
0002
0000
0000
0000
0000
1000
0000
,  // measure 73
1003
0001
0100
0010
,  // measure 74
0100
0020
0000
0000
0000
0000
0000
0000
,  // measure 75
0030
0000
0000
0000
0001
1000
0001
0100
1000
0000
0001
0100
0001
0100
0010
0000
,  // measure 76
0001
1000
0001
0100
0010
0000
0001
1000
0001
0100
1000
0000
0001
1000
0001
0100
,  // measure 77
0010
0000
0001
1000
0001
0100
1000
0000
0001
0100
0001
0100
1000
0000
0001
0100
,  // measure 78
0001
0100
1000
0000
0000
0000
0000
0000
0000
0000
0000
0000
0000
0000
0000
0000
;
