#TITLE:acting tough;
#SUBTITLE:;
#ARTIST:Dean Turnley;
#TITLETRANSLIT:;
#SUBTITLETRANSLIT:;
#ARTISTTRANSLIT:;
#GENRE:;
#CREDIT:;
#BANNER:;
#BACKGROUND:;
#LYRICSPATH:;
#CDTITLE:;
#MUSIC:Dean Turnley - Actin' Tough.ogg;
#OFFSET:0.000000;
#SAMPLESTART:100.059883;
#SAMPLELENGTH:12.000000;
#SELECTABLE:YES;
#BPMS:0.000000=140.000000
;
#STOPS:0.000000=1.500000
;
#BGCHANGES:;
#KEYSOUNDS:;
#ATTACKS:;

//---------------dance-single - ----------------
#NOTES:
     dance-single:
     :
     Hard:
     12:
     0.600157,0.533062,0.720492,0.000000,0.026489,793.000000,657.000000,136.000000,0.000000,0.000000,0.000000,0.600157,0.533062,0.720492,0.000000,0.026489,793.000000,657.000000,136.000000,0.000000,0.000000,0.000000:
// measure 0
0000
0000
0000
0000
,  // measure 1
0000
0000
0000
0000
,  // measure 2
0000
0000
0000
0000
,  // measure 3
0000
0000
0000
0000
,  // measure 4
0100
0001
0100
0001
0100
0001
0110
0000
,  // measure 5
0101
0000
0010
0001
0100
0001
0100
0100
,  // measure 6
0010
0001
0100
0001
1100
0000
0100
0010
,  // measure 7
0101
0000
0110
0000
0100
0001
0110
0000
,  // measure 8
0010
0100
0001
0100
1000
0000
0100
0010
,  // measure 9
0100
0010
0101
0000
1001
0000
0100
0010
,  // measure 10
0010
0001
0100
0010
1001
0000
0100
0010
,  // measure 11
0110
0000
0001
0100
0001
1000
0100
0100
,  // measure 12
0010
0100
0001
0100
1000
0010
0101
0000
,  // measure 13
0101
0000
0110
0000
0001
0100
1000
0100
,  // measure 14
0010
0100
0001
0100
1010
0000
0100
0001
,  // measure 15
1100
0000
0101
0000
0010
0001
0101
0000
,  // measure 16
0010
0100
0001
0100
1001
0000
0100
0001
,  // measure 17
0100
0010
0101
0000
0110
0000
1000
0001
,  // measure 18
0100
0001
0100
0010
0110
0000
0001
0100
,  // measure 19
1100
0000
0010
0100
0001
0100
1100
0000
,  // measure 20
0010
0100
0001
0100
1000
0100
1100
0000
,  // measure 21
0110
0000
0110
0000
0001
0100
1000
0010
,  // measure 22
0001
0100
0001
0100
0110
0000
0001
0100
,  // measure 23
1010
0000
0110
0000
0100
0001
0110
0000
,  // measure 24
0101
0010
0100
1000
0110
0000
0100
0001
,  // measure 25
0100
0010
0110
0000
0101
0000
1100
0100
,  // measure 26
0010
0001
0100
0001
1100
0000
1000
0100
,  // measure 27
0110
0000
0010
0001
0100
0010
0101
0000
,  // measure 28
0100
0010
0100
0001
1000
0010
0101
0000
,  // measure 29
0110
0000
0101
0000
0001
0100
1000
0100
,  // measure 30
0010
0100
0001
0010
0110
0000
0100
0010
,  // measure 31
1001
0000
0101
0000
0100
0010
1001
0000
,  // measure 32
0101
0001
0100
0001
0110
0000
0001
0100
,  // measure 33
1000
0010
1001
0000
0110
0000
1000
0001
,  // measure 34
0100
0001
0100
0001
1100
0000
0001
0100
,  // measure 35
0110
0000
0100
0010
1000
0100
0101
0000
,  // measure 36
0010
0001
0100
0010
1000
0001
0011
0000
,  // measure 37
0110
0000
1001
0000
0100
0010
0100
0010
,  // measure 38
0001
0001
0010
0100
1100
0000
0010
0001
,  // measure 39
0110
0000
0110
0000
0010
0001
0101
0000
,  // measure 40
0010
0001
0100
0010
1001
0000
0001
0100
,  // measure 41
0010
0001
0110
0000
0101
0000
0010
0001
,  // measure 42
0100
0001
0100
0010
1001
0000
0001
0100
,  // measure 43
0110
0000
0010
0001
0100
0010
1001
0000
,  // measure 44
0010
0001
0100
0010
1000
0100
0011
0000
,  // measure 45
0110
0000
0110
0000
0001
0100
1000
0100
,  // measure 46
0010
0100
0001
0100
1100
0000
1000
0100
,  // measure 47
0110
0000
0101
0000
0100
0010
1001
0000
,  // measure 48
0010
0100
0001
0100
1001
0000
0010
0100
,  // measure 49
0001
0100
0011
0000
0101
0000
0100
0010
,  // measure 50
0100
0001
1000
0001
0010
0000
0100
0010
,  // measure 51
1001
0000
0001
0100
0010
0001
1100
0000
,  // measure 52
0010
0100
0001
0100
1000
0010
0110
0000
,  // measure 53
0110
0000
0101
0000
0010
0001
1000
0100
,  // measure 54
0010
0100
0001
0100
1010
0000
0010
0100
,  // measure 55
0110
0000
0101
0000
0100
0010
1001
0000
,  // measure 56
0000
0000
1000
0000
0000
0100
0000
0000
0000
0000
0010
0000
,  // measure 57
0000
0000
0001
0000
0000
0000
0000
0000
0000
0000
0000
0000
,  // measure 58
0010
0100
0001
1000
1001
0000
0010
0100
,  // measure 59
0011
0000
0100
0001
0001
0100
1001
0000
,  // measure 60
0100
0010
0001
0100
1000
0001
1100
0000
,  // measure 61
0101
0000
0101
0000
0100
0010
1000
0001
,  // measure 62
0001
0100
0001
0100
1001
0000
0100
0010
,  // measure 63
0110
0000
0101
0000
0001
0100
0110
0000
,  // measure 64
0001
0100
0010
0100
1001
0000
0100
0001
,  // measure 65
0100
0010
0101
0000
0110
0000
0100
1000
,  // measure 66
0001
0010
0100
0010
1001
0000
0100
0010
,  // measure 67
0101
0000
0010
0001
0100
0001
1100
0000
,  // measure 68
0010
0100
0001
0100
1000
0010
1001
0000
,  // measure 69
0101
0000
0110
0000
0001
0100
1000
0000
,  // measure 70
0100
0010
0100
0010
1001
0000
0100
0010
,  // measure 71
0101
0000
0110
0000
0010
0100
0110
0000
,  // measure 72
0100
0010
0001
0100
1100
0000
1000
0001
,  // measure 73
0010
0100
1001
0000
0110
0000
0100
0001
,  // measure 74
0100
0010
0001
0100
1000
0000
0100
0001
,  // measure 75
0110
0000
0100
0001
0100
0010
0110
0000
,  // measure 76
0100
0010
0001
0100
1000
0010
0101
0000
,  // measure 77
0110
0000
0101
0000
0010
0100
1000
0100
,  // measure 78
0001
0010
0100
0001
0101
0000
1000
0100
,  // measure 79
0110
0000
0101
0000
0100
0010
0101
0000
,  // measure 80
0010
0001
0100
0010
1001
0000
1000
0001
,  // measure 81
0100
0010
0101
0000
0110
0000
1000
0001
,  // measure 82
0100
0001
0100
0001
0101
0000
0100
0010
,  // measure 83
0110
0000
0100
0001
0100
0010
1001
0000
,  // measure 84
0100
0001
0100
0010
1000
0001
0110
0000
,  // measure 85
0101
0000
0110
0000
0001
0100
1000
0010
,  // measure 86
0100
0001
0100
0010
1001
0000
0100
0010
,  // measure 87
0101
0000
0101
0000
0001
0100
0011
0000
,  // measure 88
0100
0010
0001
0100
0001
0100
1000
0010
,  // measure 89
0100
0001
0100
0010
0001
0100
1000
0001
,  // measure 90
0100
0010
0100
0001
0100
0001
0100
0010
,  // measure 91
0001
1000
0001
0100
0010
0001
0100
0001
,  // measure 92
0100
0010
0001
1000
0001
0100
0010
0100
,  // measure 93
0001
0100
1000
0010
0001
0100
0001
0100
,  // measure 94
0010
0001
0010
0001
0100
0010
0001
1000
,  // measure 95
0001
0100
0010
0001
0100
0001
0100
0010
,  // measure 96
0001
1000
0001
0100
0010
0001
0100
0001
,  // measure 97
0001
0010
0100
1000
0100
0010
0001
0100
,  // measure 98
0001
0100
0010
0010
0100
0001
0100
1000
,  // measure 99
0100
0010
0001
0100
0001
0100
0001
0100
,  // measure 100
0010
0001
0100
0001
0100
0010
0001
1000
,  // measure 101
0001
0100
0010
0001
0100
0001
0010
1000
,  // measure 102
0010
0100
0001
0100
0101
0000
0100
0010
,  // measure 103
0110
0000
1001
0000
0100
0010
1001
0000
,  // measure 104
0000
0000
0010
0000
0000
0100
0000
0000
0000
0000
0010
0000
,  // measure 105
0000
0000
0100
0000
0000
0000
0000
0010
0000
0000
0000
0100
;
