#VERSION:0.83;
#TITLE:am;
#SUBTITLE:;
#ARTIST:LONR;
#TITLETRANSLIT:;
#SUBTITLETRANSLIT:;
#ARTISTTRANSLIT:;
#GENRE:;
#ORIGIN:;
#CREDIT:;
#BANNER:;
#BACKGROUND:;
#PREVIEWVID:;
#JACKET:;
#CDIMAGE:;
#DISCIMAGE:;
#LYRICSPATH:;
#CDTITLE:;
#MUSIC:Lonr. - A.M. (Audio).ogg;
#OFFSET:0.000000;
#SAMPLESTART:100.059883;
#SAMPLELENGTH:12.000000;
#SELECTABLE:YES;
#BPMS:0.000=146.000,
288.000=73.000,
304.000=146.000;
#STOPS:0.000=0.800;
#DELAYS:;
#WARPS:;
#TIMESIGNATURES:0.000=4=4;
#TICKCOUNTS:0.000=4;
#COMBOS:0.000=1;
#SPEEDS:0.000=1.000=0.000=0;
#SCROLLS:0.000=1.000;
#FAKES:;
#LABELS:0.000=Song Start;
#BGCHANGES:0.000=Lonr. - A.M. (Official Music Video).mp4=1.000=0=0=1=====,
99999=-nosongbg-=1.000=0=0=0 // don't automatically add -songbackground-
;
#KEYSOUNDS:;
#ATTACKS:
;

//---------------dance-single - ----------------
#NOTEDATA:;
#CHARTNAME:;
#STEPSTYPE:dance-single;
#DESCRIPTION:;
#CHARTSTYLE:;
#DIFFICULTY:Hard;
#METER:11;
#RADARVALUES:0.580671,0.862323,1.398929,0.306203,0.006004,677.000000,444.000000,233.000000,51.000000,0.000000,0.000000,0.000000,0.000000,0.000000,0.580671,0.862323,1.398929,0.306203,0.006004,677.000000,444.000000,233.000000,51.000000,0.000000,0.000000,0.000000,0.000000,0.000000;
#CREDIT:;
#NOTES:
// measure 0
0000
0000
0000
0000
,  // measure 1
0000
0000
0000
0000
,  // measure 2
0000
0000
0000
0000
,  // measure 3
0000
0000
0000
0000
,  // measure 4
0100
1000
0001
0100
0001
1000
0001
0010
,  // measure 5
0100
0001
1000
0001
0010
0000
0000
0000
,  // measure 6
0010
0001
0100
0010
0001
1000
0001
0100
,  // measure 7
1000
0100
0100
0001
0010
0100
0001
0000
,  // measure 8
1001
0001
1000
0001
0100
0010
0100
0001
,  // measure 9
0000
0001
0110
0000
0110
0000
0110
0000
,  // measure 10
0100
0001
1000
0001
0010
0010
0000
0001
,  // measure 11
0000
0100
1001
0000
0110
0000
0000
0000
,  // measure 12
1001
0001
0001
0010
0100
0001
0000
0100
,  // measure 13
0000
0010
0101
0000
1010
0000
0000
0000
,  // measure 14
0100
0001
1000
0001
0010
0100
0001
1000
,  // measure 15
0000
0001
0110
0000
0011
0000
0000
0000
,  // measure 16
1001
0000
0000
0000
1000
0001
0100
0010
,  // measure 17
1001
0000
0001
1000
0101
0000
0110
0000
,  // measure 18
1001
0000
0000
0000
1000
0001
0100
0010
,  // measure 19
0101
0000
0100
0010
0101
0000
0110
0000
,  // measure 20
1001
0000
0110
0000
0001
1000
0001
0100
,  // measure 21
1010
0000
0001
0100
0101
0000
0110
0110
,  // measure 22
0000
0000
1001
0000
0110
0000
0101
0101
,  // measure 23
0000
0000
0101
0000
0110
0000
1001
1001
,  // measure 24
2002
0000
0000
3003
0100
0010
1001
0000
,  // measure 25
0202
0000
0303
0000
1000
0001
0100
0010
,  // measure 26
2002
0000
3003
0000
1000
0001
0110
0000
,  // measure 27
0101
0101
0110
1001
,  // measure 28
0220
0000
0330
0000
0110
0000
0010
0001
,  // measure 29
2200
0000
3300
0000
0110
0000
0001
0100
,  // measure 30
2002
0000
3003
0000
0010
0100
0101
0000
,  // measure 31
0101
0110
1001
0110
,  // measure 32
0110
0000
0101
0110
2002
0000
3003
0000
,  // measure 33
0110
0000
0101
0110
2002
0000
3003
0000
,  // measure 34
0110
0000
0110
0101
2002
0000
3003
0000
,  // measure 35
0110
0000
0101
0110
2002
0000
3003
0000
,  // measure 36
0110
0000
0101
0110
2002
0000
3003
0000
,  // measure 37
0110
0000
0101
1100
0202
0000
0303
0000
,  // measure 38
0110
0000
0101
0110
2002
0000
3003
0000
,  // measure 39
0110
0000
0101
1100
0101
0000
0110
0000
,  // measure 40
0001
1000
0001
0000
0100
0010
0000
0000
,  // measure 41
0100
0010
0011
0000
1100
0000
1001
0000
,  // measure 42
0100
0100
1000
0000
0001
0100
0000
0001
,  // measure 43
0100
0010
1001
0000
0110
0000
0000
0000
,  // measure 44
0110
0000
0001
0010
0100
1000
0000
0001
,  // measure 45
1100
0000
0010
0100
0101
0000
1001
0000
,  // measure 46
0010
0001
0100
0010
1001
0000
0010
0001
,  // measure 47
1000
0001
0100
0010
0101
0000
0110
0000
,  // measure 48
1001
0000
0000
0100
0010
0001
0100
0010
,  // measure 49
1001
0000
0010
0001
1100
0000
0110
0000
,  // measure 50
1001
0000
0101
0000
0100
0010
0100
0001
,  // measure 51
1001
0000
0100
0010
0101
0000
0110
0000
,  // measure 52
0110
0000
0101
0000
1000
0001
0100
0010
,  // measure 53
1001
0000
1000
0010
0101
0000
0110
0110
,  // measure 54
0000
0000
0110
0000
1100
0000
0110
0101
,  // measure 55
0000
0000
0110
0000
1100
0000
0101
0110
,  // measure 56
2200
0000
3300
0000
0010
0100
1001
0000
,  // measure 57
2002
0000
3003
0000
0001
0100
0010
0100
,  // measure 58
2002
0000
3003
0000
0010
0001
1001
0000
,  // measure 59
0110
0110
0101
0101
,  // measure 60
0220
0000
0330
0000
1001
0000
0010
0100
,  // measure 61
2002
0000
3003
0000
1001
0000
0001
0100
,  // measure 62
2002
0000
3003
0000
0010
0100
0011
0000
,  // measure 63
0110
0110
0101
0110
,  // measure 64
0110
0000
0100
0001
1100
0000
0000
0000
,  // measure 65
0011
0000
0100
0010
1001
0000
0000
0000
,  // measure 66
0110
0000
0100
0010
1001
0000
0000
0000
,  // measure 67
0110
0000
0100
0001
1100
0000
0000
0000
,  // measure 68
0110
0000
0001
0010
0110
0000
0000
0000
,  // measure 69
0010
0000
0100
0001
1100
0000
0000
0000
,  // measure 70
0110
0000
0001
0010
1100
0000
0000
0000
,  // measure 71
0110
0000
0001
1000
1100
0000
0110
0000
,  // measure 72
1001
0110
0101
0000
0000
0110
1001
0110
,  // measure 73
0110
0000
0000
0000
0110
0000
1001
0000
0110
0000
0110
0000
0000
0000
1001
1001
,  // measure 74
1001
0110
1001
0000
0000
0101
0110
1001
,  // measure 75
0000
0000
0110
0000
0110
0000
0101
0000
0110
0000
0001
0100
1001
0000
0110
0000
,  // measure 76
2002
0000
3003
0000
0100
0010
1001
0000
,  // measure 77
0220
0000
0330
0000
0001
1000
0100
0010
,  // measure 78
0220
0000
0330
0000
0001
1000
0101
0000
,  // measure 79
0110
1100
0101
0110
,  // measure 80
2002
0000
3003
0000
0110
0000
0001
1000
,  // measure 81
0202
0000
0303
0000
0110
0000
0010
0100
,  // measure 82
0202
0000
0303
0000
1000
0100
0011
0000
,  // measure 83
0110
0101
0110
1100
,  // measure 84
0101
0000
0011
0011
1010
0000
0000
0000
,  // measure 85
0110
0000
0110
0110
1001
0000
0000
0000
,  // measure 86
0101
0000
0110
1100
0110
0000
0000
0000
,  // measure 87
0110
0000
0110
0101
1100
0000
0000
0000
,  // measure 88
1001
0000
0101
0110
0110
0000
0000
0000
,  // measure 89
0110
0000
0110
0101
1100
0000
0000
0000
,  // measure 90
0110
0000
0110
0101
1100
0000
0000
0000
,  // measure 91
0110
0000
0110
0101
1100
0000
0110
0000
,  // measure 92
0101
0100
0010
0001
1000
0001
0100
0010
,  // measure 93
0001
1000
0001
0100
1000
0000
0000
0000
,  // measure 94
0010
0001
0100
0010
0001
1000
0001
0100
,  // measure 95
2000
0000
0000
3000
;
