#TITLE:99;
#SUBTITLE:;
#ARTIST:Olamide, Seyi Vibez, Asake, Young John, & Daecolm;
#TITLETRANSLIT:;
#SUBTITLETRANSLIT:;
#ARTISTTRANSLIT:;
#GENRE:;
#CREDIT:;
#BANNER:;
#BACKGROUND:;
#LYRICSPATH:;
#CDTITLE:;
#MUSIC:Olamide, Seyi Vibez, Asake, Young Jonn - 99 (Official Video) ft. Daecolm.ogg;
#OFFSET:0.000000;
#SAMPLESTART:100.059883;
#SAMPLELENGTH:12.000000;
#SELECTABLE:YES;
#BPMS:0.000000=112.000000
;
#STOPS:0.000000=0.250000
;
#BGCHANGES:0.000=Olamide, Seyi Vibez, Asake, Young John - 99 (Official Video) ft. Daecolm.mp4=1.000=0=0=1=====,
99999=-nosongbg-=1.000=0=0=0 // don't automatically add -songbackground-
;
#KEYSOUNDS:;
#ATTACKS:;

//---------------dance-single - ----------------
#NOTES:
     dance-single:
     :
     Hard:
     12:
     0.472354,0.650574,0.004013,0.032102,0.664104,824.000000,823.000000,1.000000,8.000000,0.000000,0.000000,0.472354,0.650574,0.004013,0.032102,0.664104,824.000000,823.000000,1.000000,8.000000,0.000000,0.000000:
// measure 0
0000
0000
0000
0000
,  // measure 1
0000
0000
0000
0000
,  // measure 2
0000
0000
0000
0000
,  // measure 3
0000
0000
0000
0000
0000
0000
0000
0000
1000
0100
0000
0000
0001
0010
0000
0000
,  // measure 4
0100
0001
1000
0001
0010
0100
0001
0000
0000
0000
0000
0000
0100
0001
1000
0001
,  // measure 5
0010
0000
0001
0000
0100
0000
0000
0000
0000
0000
0000
0000
1000
0100
0001
0100
,  // measure 6
0001
0010
0100
0010
0001
1000
0001
0100
,  // measure 7
1000
0000
0000
0001
0000
0000
0010
0000
0100
0001
0000
0000
1000
0000
0000
0000
,  // measure 8
0000
0000
0000
0000
0100
0001
0010
0000
0100
0000
0000
0000
0000
1000
0100
0001
,  // measure 9
0100
0001
0010
0100
0001
1000
0100
0000
0001
0000
0000
0000
0100
0000
0100
0000
,  // measure 10
0000
0000
0010
0000
0010
0100
0000
0001
0000
1000
0000
0000
0000
0100
0001
1000
,  // measure 11
0001
0010
0001
1000
0001
0100
1000
0000
1000
0000
0001
0000
0100
0010
0100
0000
,  // measure 12
1000
0100
0001
0100
0001
0000
0010
0000
1000
0000
0001
0000
0100
0000
0000
0000
,  // measure 13
0000
0100
0001
1000
0001
0010
0100
0000
0001
1000
0100
0000
0010
0000
0000
0000
,  // measure 14
0000
0000
0000
0000
0001
1000
0001
0100
1000
0000
0001
0000
0100
0000
0000
0000
,  // measure 15
0000
0000
0001
1000
0100
0010
0100
0000
0100
0000
0010
0000
0001
0000
1000
0000
,  // measure 16
0100
0000
0000
0000
0000
1000
0001
0100
,  // measure 17
1000
0000
0000
0000
,  // measure 18
0100
0000
0001
1000
0000
0100
0001
1000
0001
0000
0010
0100
0000
0000
0000
0000
,  // measure 19
1000
0000
0000
0000
0100
0000
0000
0000
0001
0000
0000
0000
0100
0000
0000
0000
0001
0000
0000
0000
0100
0000
0000
0000
0010
0000
0000
0000
0000
0000
0100
0000
0000
0001
0000
0000
0000
0000
0000
0000
0000
0000
1000
0000
0000
0000
0000
0000
,  // measure 20
0100
0000
0000
0000
0000
1000
0001
0100
,  // measure 21
1000
0000
0000
0000
,  // measure 22
0001
0000
0010
0100
0000
0100
0001
0010
1000
0000
0100
0001
0000
0000
0000
0000
,  // measure 23
0100
0000
0000
0000
0010
0000
0000
0000
0001
0000
0000
0000
1000
0000
0000
0000
0001
0000
0000
0000
0100
0000
0000
0000
1000
0000
0000
0000
0000
0000
0001
0000
0000
0100
0000
0000
0010
0000
0000
0000
0000
0000
0001
0000
0000
0000
0000
0000
,  // measure 24
0020
0000
0000
0000
,  // measure 25
0000
0000
0000
0000
0000
0000
0000
0000
0030
0001
0000
0100
1000
0000
0000
0000
,  // measure 26
2000
0000
0000
0000
,  // measure 27
0000
0000
0000
0000
3000
0000
0000
0000
0000
0100
0000
0001
0010
0000
0000
0000
,  // measure 28
1000
0100
0001
0100
0001
0010
0100
0000
0000
0000
0000
0000
0000
0100
0010
0001
,  // measure 29
1000
0001
0100
0010
1000
0100
0001
0000
0000
0010
0001
0100
0001
0100
0001
1000
,  // measure 30
0200
0000
0000
0000
,  // measure 31
0000
0000
0000
0000
,  // measure 32
0000
0000
0000
0000
0300
0000
0000
0000
0100
0000
0010
0000
0100
0000
0000
0001
,  // measure 33
0000
0000
0000
0000
0000
0000
0000
0100
0001
0000
0000
1000
0000
0000
0000
0100
,  // measure 34
0000
0000
0000
0000
0000
0000
0000
0010
0001
0000
0001
0000
0100
0000
0000
1000
,  // measure 35
0000
0000
0000
0000
0000
0000
0000
0100
0000
0001
0000
0010
0000
0000
0000
0100
,  // measure 36
0000
0000
0000
0000
0000
0000
0000
1000
0100
0000
0001
0000
0010
0000
0000
0001
,  // measure 37
0000
0000
0000
0000
0000
0000
0000
0100
0000
0001
0000
1000
0000
0000
0000
0100
,  // measure 38
0000
0000
0000
0000
0000
0000
0000
0001
0100
0000
0010
0000
0001
0000
1000
0100
,  // measure 39
0000
0000
0000
0001
0010
0000
0000
0000
0000
0000
0000
0000
0100
0001
0000
1000
,  // measure 40
0100
0000
0000
0100
0000
0010
0000
0001
,  // measure 41
0000
2000
3000
0000
1000
0100
0001
0200
,  // measure 42
0000
0300
0000
0100
0000
1000
0000
0001
,  // measure 43
0000
0200
0000
0000
0300
0000
0100
0002
,  // measure 44
0000
0000
0000
0003
0000
0100
0001
1000
0001
0000
1000
0000
0001
0000
0100
0000
,  // measure 45
0000
0100
0000
0010
0000
1000
0100
0001
,  // measure 46
0000
0000
0000
0001
0100
1000
0000
0001
,  // measure 47
0000
0100
0000
0010
0000
0100
0001
1000
,  // measure 48
0001
0000
0000
0010
0001
1000
0001
0100
,  // measure 49
1000
0000
0000
0100
0001
0000
0000
0000
,  // measure 50
1000
0000
0100
0001
0000
0010
0100
0001
1000
0000
0100
0001
0000
0000
0000
0000
,  // measure 51
0100
0000
0000
0000
0010
0000
0000
0000
0001
0000
0000
0000
1000
0000
0000
0000
0001
0000
0000
0000
0100
0000
0000
0000
1000
0000
0000
0000
0000
0000
0100
0000
0000
0001
0000
0000
0010
0000
0000
0000
0000
0000
0100
0000
0000
0000
0000
0000
,  // measure 52
0001
0000
0000
0100
0001
1000
0001
0010
,  // measure 53
0100
0000
0000
0010
0100
0000
0000
0000
,  // measure 54
1000
0000
0001
0100
0000
0010
0100
0001
1000
0000
0100
0001
0000
0000
0000
0000
,  // measure 55
1000
0000
0000
0000
0001
0000
0000
0000
0100
0000
0000
0000
0010
0000
0000
0000
0100
0000
0000
0000
0001
0000
0000
0000
1000
0000
0000
0000
0000
0000
0100
0000
0000
0001
0000
0000
0010
0000
0000
0010
0000
0000
0001
0000
0000
0100
0000
0000
,  // measure 56
1000
0000
0001
0100
0010
0000
0001
1000
0100
0000
0010
0100
0001
0000
0001
0100
,  // measure 57
0010
0000
0001
0100
0010
0000
0001
0100
1000
0000
0001
0100
0010
0000
0001
0100
,  // measure 58
1000
0000
0001
0100
0010
0000
0001
0100
0010
0000
0001
0100
1000
0000
0100
0001
,  // measure 59
0010
0000
0001
0100
0010
0000
0001
0100
1000
0000
0001
0100
0010
0000
0100
1000
,  // measure 60
0001
0100
0010
0100
0001
0100
1000
0000
0000
0100
0000
0001
0010
0100
0001
0100
,  // measure 61
1000
0010
0001
0100
0001
1000
0100
0000
0000
1000
0000
0001
0100
0010
0100
0010
,  // measure 62
1000
0100
0001
0100
0001
0010
0100
0001
1000
0000
0100
0001
0000
0000
0000
0100
,  // measure 63
0000
0001
0000
0000
0000
0000
0001
0100
1000
0000
0100
0001
1000
0001
0010
0100
,  // measure 64
0001
0000
0001
1000
0100
0000
0010
0000
0001
0000
0100
0000
1000
0000
0000
0000
,  // measure 65
0100
0000
0001
1000
0100
0000
0000
0000
0000
0010
0100
0000
0001
1000
0100
0001
,  // measure 66
0010
0000
0100
0001
1000
0000
0000
0000
0000
0100
0001
1000
0001
0010
0100
0001
,  // measure 67
0010
0000
0001
0100
1000
0000
0010
0100
0001
0000
0100
0000
0010
0000
1000
0100
,  // measure 68
0001
0000
0100
0001
0010
0000
0000
0000
0000
0100
0001
1000
0001
0000
0010
0100
,  // measure 69
0001
0000
1000
0000
0100
0000
0000
0000
0000
1000
0001
0100
0010
0000
1000
0001
,  // measure 70
0100
0000
0010
0001
0100
0000
0000
0000
0000
0000
0001
1000
0100
0000
0010
0100
,  // measure 71
0001
0000
1000
0000
0100
0000
0000
0000
0000
0000
0100
0001
0010
0100
0001
0000
,  // measure 72
1000
0000
0000
0010
0000
0001
0000
0100
0000
1000
0000
0000
0000
0000
1000
0100
,  // measure 73
0001
0000
0000
0010
0000
0001
0000
0100
0000
1000
0000
0010
0000
0100
0000
0010
,  // measure 74
0000
0000
0000
0001
0000
0010
0000
0100
0000
1000
0000
0010
0000
0001
0000
0100
,  // measure 75
0000
0000
0000
1000
0000
0001
0000
0100
0000
0010
0000
1000
0000
0100
0000
0001
,  // measure 76
0010
0000
0000
0010
0000
0001
0000
0100
0000
1000
0000
0010
0000
0001
0000
0100
,  // measure 77
0000
1000
0000
0010
0000
0001
0000
0100
0000
1000
0000
0000
0001
0000
0100
0000
,  // measure 78
1000
0000
0000
0010
0000
0001
0000
1000
0000
0100
0000
0001
0000
0010
0000
0100
,  // measure 79
0000
0010
0000
0001
0000
0100
0000
0010
0000
0100
0010
0001
0100
0000
0001
0000
,  // measure 80
1000
0100
0001
0000
0000
0000
0000
0000
0000
0000
0001
0000
0100
0000
0010
0001
,  // measure 81
0000
0100
0000
0001
0000
0100
0000
1000
0000
0100
0000
0100
0000
0000
0000
0000
,  // measure 82
0001
0000
1000
0100
0000
0001
0100
0001
0010
0000
0100
0001
0000
0000
0000
0000
,  // measure 83
0100
0000
0000
0000
0010
0000
0000
0000
0001
0000
0000
0000
1000
0000
0000
0000
0001
0000
0000
0000
0100
0000
0000
0000
1000
0000
0000
0000
0000
0000
0100
0000
0000
0001
0000
0000
0010
0000
0000
0000
0000
0000
0100
0000
0000
0000
0000
0000
,  // measure 84
0001
0010
0001
0100
1000
0010
0001
1000
,  // measure 85
0001
0100
1000
0000
0000
0000
1000
0100
,  // measure 86
0001
0000
0010
0100
0000
0001
1000
0100
0001
0000
0010
0100
0000
0000
0000
0000
,  // measure 87
0100
0000
0000
0000
0010
0000
0000
0000
0001
0000
0000
0000
1000
0000
0000
0000
0001
0000
0000
0000
0100
0000
0000
0000
1000
0000
0000
0000
0000
0000
0010
0000
0000
0100
0000
0000
0000
0000
0000
0000
0000
0000
0000
0000
0000
0000
0000
0000
,  // measure 88
1001
0000
0000
0000
0010
0100
0001
0000
1000
0000
0001
0000
0100
0000
0010
0100
,  // measure 89
0001
0100
0010
0100
0001
1000
0100
0000
0010
0000
0000
0000
0001
0000
0100
0000
,  // measure 90
0000
0000
0000
0100
0000
0001
1000
0000
0100
0000
0000
0000
0010
0100
0001
1000
,  // measure 91
0001
0100
0010
0000
0001
0000
0100
0000
1000
0000
0100
0001
0000
0010
0100
0000
,  // measure 92
0001
0000
0000
0100
0000
0001
1000
0000
0100
0000
0000
0000
0000
0000
0010
0001
,  // measure 93
0000
0010
0000
0100
0000
0010
0001
0000
1000
0000
0000
0100
0000
0010
0001
0000
,  // measure 94
0100
0000
0000
1000
0000
0100
0001
0000
1000
0000
0000
0000
0000
0000
0100
0001
,  // measure 95
0000
0010
0000
0001
0000
0010
0100
0000
1000
0000
0000
0100
0000
0001
0010
0000
,  // measure 96
0100
0000
0000
0000
0000
0001
0100
0000
0010
0000
0000
0000
0000
0010
0100
0000
,  // measure 97
0001
0000
0000
0000
0000
0000
1000
0100
0001
0000
0010
0100
0000
0001
1000
0000
,  // measure 98
0100
0000
0000
0000
0000
0100
0001
0000
0010
0000
0000
0000
0000
0100
0001
0000
,  // measure 99
0010
0000
0000
0000
0000
0000
1000
0100
0001
0000
0010
0100
0000
0001
1000
0000
,  // measure 100
0100
0001
0010
0000
0100
0001
0010
0000
0001
1000
0100
0000
1000
0010
0100
0000
,  // measure 101
0001
0000
0000
0000
0000
0000
0100
1000
0001
0000
0010
0100
0000
0001
1000
0000
,  // measure 102
0100
0000
0000
0000
0000
0000
0010
0000
0100
0000
0000
0001
0000
0010
0100
0000
,  // measure 103
0002
0000
0000
0000
0003
0010
0010
0000
,  // measure 104
0100
0000
0001
1000
0100
0000
0001
0100
0001
0000
0100
0010
0100
0010
0001
1000
,  // measure 105
0100
0000
0001
0100
1000
0000
0001
0100
0010
0000
0001
0100
0010
0100
0001
0100
,  // measure 106
1000
0000
0001
0100
0010
0000
0000
0000
1000
0000
0001
0100
0010
0000
0000
0000
,  // measure 107
0100
0000
0010
0100
0000
0001
1000
0100
0001
0010
0000
0000
0100
0001
0000
0000
,  // measure 108
0001
0100
0001
0100
1000
0010
0100
0000
0000
0000
0000
0000
0010
0100
0001
1000
,  // measure 109
0001
0000
0001
0000
0100
0000
1000
0000
0000
0000
0000
0100
0001
1000
0001
0010
,  // measure 110
0100
1000
0001
0100
1000
0001
0100
0010
,  // measure 111
0010
0000
0000
0100
0000
0000
0001
0000
0100
0010
0000
0000
0001
0100
0000
0000
;
