#TITLE:754;
#SUBTITLE:;
#ARTIST:CeCe Natalie;
#TITLETRANSLIT:;
#SUBTITLETRANSLIT:;
#ARTISTTRANSLIT:;
#GENRE:;
#CREDIT:;
#BANNER:;
#BACKGROUND:;
#LYRICSPATH:;
#CDTITLE:;
#MUSIC:Cece Natalie - 754.ogg;
#OFFSET:0.000000;
#SAMPLESTART:100.059883;
#SAMPLELENGTH:12.000000;
#SELECTABLE:YES;
#BPMS:0.000000=133.000000
;
#STOPS:
;
#BGCHANGES:;
#KEYSOUNDS:;
#ATTACKS:;

//---------------dance-single - ----------------
#NOTES:
     dance-single:
     :
     Hard:
     11:
     0.435965,0.469945,0.008138,0.113932,0.000000,750.000000,748.000000,2.000000,28.000000,0.000000,0.000000,0.435965,0.469945,0.008138,0.113932,0.000000,750.000000,748.000000,2.000000,28.000000,0.000000,0.000000:
// measure 0
0000
0000
0000
0000
,  // measure 1
0000
0000
0000
0000
,  // measure 2
0000
0000
0000
0000
,  // measure 3
0000
0000
0000
0000
,  // measure 4
0010
0000
0000
0001
0100
0000
0010
0001
,  // measure 5
0100
0010
0001
0100
0002
0000
0003
0000
,  // measure 6
0010
0100
0001
0100
1000
0000
0001
0100
,  // measure 7
0010
0100
0001
0100
2000
0000
0000
0000
,  // measure 8
0200
0000
3300
0001
0010
0000
0100
0010
,  // measure 9
0001
0100
0001
0100
2000
0000
3000
0000
,  // measure 10
0010
0100
0010
0100
1000
0100
0010
0100
,  // measure 11
0010
0100
0001
0100
2000
0000
0000
0000
,  // measure 12
0200
0000
3300
0010
0100
0000
0001
0100
,  // measure 13
0010
0100
0001
0100
2000
0000
3000
0000
,  // measure 14
0010
0001
1000
0001
0100
0000
0010
0001
,  // measure 15
0100
0010
0001
0100
0020
0000
0000
0000
,  // measure 16
0030
0100
0000
1000
,  // measure 17
0000
0100
0000
1000
,  // measure 18
0000
0010
0000
0100
,  // measure 19
0000
0100
0000
0010
,  // measure 20
0000
0001
0000
0100
,  // measure 21
0000
0010
0000
0100
,  // measure 22
0000
0010
0000
0010
,  // measure 23
0000
0100
0000
0010
,  // measure 24
0101
0000
0000
0100
1000
0000
0000
0000
,  // measure 25
0100
0010
0100
0000
0001
0000
0000
0000
,  // measure 26
0100
0010
0001
0100
0001
0000
0100
0000
,  // measure 27
0010
0100
0001
1000
0100
0000
0000
0000
,  // measure 28
0010
0000
0000
0001
0100
0000
0000
0000
,  // measure 29
0100
0010
0100
0000
0001
0000
0000
0000
,  // measure 30
0100
0000
0010
0100
0001
0000
0000
0000
,  // measure 31
0010
0001
1000
0000
0100
0000
0000
0010
,  // measure 32
0100
0001
0100
0010
0001
0100
0001
1000
,  // measure 33
0100
0010
0100
1000
0100
0010
0100
0010
,  // measure 34
0100
0010
0001
1000
0001
0100
0010
0001
,  // measure 35
0100
0001
0100
0010
0001
0100
0001
0100
,  // measure 36
1000
0100
0010
0001
0100
0001
0100
0010
,  // measure 37
0100
1000
0100
0010
0001
0100
0001
0000
,  // measure 38
0010
0000
0100
0001
0010
0000
0000
0000
,  // measure 39
0100
0001
0010
0000
0100
0000
0000
0000
,  // measure 40
0010
0100
0010
0001
0100
0001
0100
0001
,  // measure 41
0100
0010
0001
0100
0001
0010
0100
1000
,  // measure 42
0100
0010
0100
0010
0100
0010
0010
0001
,  // measure 43
1000
0001
0100
0010
0001
0100
0001
0100
,  // measure 44
0010
0001
0100
0001
0100
0010
0001
0100
,  // measure 45
0001
0100
0010
0100
0001
0100
1000
0100
,  // measure 46
0010
0001
0100
0001
0100
0010
0001
0100
,  // measure 47
0001
0100
0010
0001
0100
0001
0100
0010
,  // measure 48
0001
1000
0001
0100
0010
0001
0100
0010
,  // measure 49
0100
0100
1000
0100
0010
0001
0100
0010
,  // measure 50
0100
0100
0010
0100
0010
0001
0100
0001
,  // measure 51
0100
0010
0001
1000
0001
0100
0001
0100
,  // measure 52
0010
0001
0100
0001
0100
0010
0100
1000
,  // measure 53
0010
0100
0010
0100
0010
0001
0100
0001
,  // measure 54
0100
0010
0001
0100
0001
0100
0010
0100
,  // measure 55
0001
0100
1000
0010
0001
0100
0001
0100
,  // measure 56
0010
0000
0000
0001
0010
0000
0100
0010
,  // measure 57
0001
0100
0001
0100
2000
0000
3000
0000
,  // measure 58
0010
0100
0001
1000
0100
0010
0100
0010
,  // measure 59
0001
0100
0001
0100
2000
0000
0000
0000
,  // measure 60
0200
0000
3300
0100
0010
0000
0100
0010
,  // measure 61
0001
0100
0001
0100
2000
0000
3000
0000
,  // measure 62
0100
0010
0001
0100
0001
0000
0100
0010
,  // measure 63
0001
0100
0001
1000
0200
0000
0000
0000
,  // measure 64
0020
0000
0330
0001
0100
0000
0100
0010
,  // measure 65
0001
0100
0001
0100
2000
0000
3000
0000
,  // measure 66
0001
0100
0010
0001
1000
0001
0100
0010
,  // measure 67
0001
0100
0001
0100
2000
0000
0000
0000
,  // measure 68
0200
0000
3300
0010
0100
0000
0001
0100
,  // measure 69
0001
0010
0100
0001
2000
0000
3000
0000
,  // measure 70
0010
0100
0001
0100
1000
0000
0010
0100
,  // measure 71
0001
1000
0001
0010
0220
0000
0330
0000
,  // measure 72
0010
0000
0010
0000
,  // measure 73
0010
0000
0010
0000
,  // measure 74
0010
0000
0010
0000
,  // measure 75
0010
0000
0010
0000
,  // measure 76
0010
0000
1000
0000
,  // measure 77
1000
0000
1000
0000
,  // measure 78
1000
0000
1000
0000
,  // measure 79
0100
0000
0100
0000
,  // measure 80
0001
0000
0000
0100
1000
0000
0000
0000
,  // measure 81
0001
1000
0100
0000
0010
0000
0000
0000
,  // measure 82
0010
0100
0001
0100
1000
0000
0100
0010
,  // measure 83
0001
0100
0001
0100
1000
0000
0000
0000
,  // measure 84
0010
0000
0000
0100
1000
0000
0000
0000
,  // measure 85
0010
0001
0100
0000
0010
0000
0000
0000
,  // measure 86
0100
0000
0010
0100
0001
0000
0000
0000
,  // measure 87
0010
0100
0001
0000
0010
0000
0000
0100
,  // measure 88
0001
1000
0001
0010
0100
0001
0010
0001
,  // measure 89
0100
0010
0001
1000
0001
0100
0010
0001
,  // measure 90
0100
0001
0100
0010
0001
1000
0001
0100
,  // measure 91
0010
0001
0100
0001
0100
0010
0100
0001
,  // measure 92
0100
1000
0100
0010
0001
0100
0001
0100
,  // measure 93
0010
0001
1000
0001
0100
0010
0001
0000
,  // measure 94
0100
0000
0100
0010
0100
0000
0000
0000
,  // measure 95
0010
0001
0100
0000
0100
0000
0000
0000
,  // measure 96
0010
0000
0000
0100
1000
0000
0000
0000
,  // measure 97
0010
0001
0100
0000
0100
0000
0000
0000
,  // measure 98
0010
0100
0001
0100
1000
0000
0100
0010
,  // measure 99
0001
0100
0001
1000
0100
0000
0000
0000
,  // measure 100
0010
0000
0000
0100
1000
0000
0000
0000
,  // measure 101
0001
0100
1000
0000
0100
0000
0000
0000
,  // measure 102
0010
0000
0001
0100
1000
0000
0000
0000
,  // measure 103
0010
0001
1000
0000
0100
0000
0000
0000
,  // measure 104
0010
0100
0001
1000
0001
0010
0100
0001
,  // measure 105
0100
0001
0010
0001
0100
0001
1000
0001
,  // measure 106
0010
0100
0001
1000
0001
0010
0100
0010
,  // measure 107
0100
0010
0100
1000
0100
0010
0100
0010
,  // measure 108
0100
0010
0100
1000
0010
0100
0001
0100
,  // measure 109
0010
0001
1000
0001
0100
0010
0001
0100
,  // measure 110
0001
0100
0010
0001
1000
0001
0100
0010
,  // measure 111
0001
0100
0001
0100
0010
0100
0001
0100
,  // measure 112
1000
0000
0000
0001
0100
0000
0010
0001
,  // measure 113
1000
0001
0100
0010
2000
0000
3000
0000
,  // measure 114
0010
0100
0001
1000
0100
0001
0010
0001
,  // measure 115
0100
0010
0100
0001
2000
0000
0000
0000
,  // measure 116
0200
0000
3300
0010
0100
0000
0001
0010
,  // measure 117
0100
0010
0001
0100
1000
0000
0000
0000
,  // measure 118
0010
0100
0001
0100
0010
0000
0100
0010
,  // measure 119
0001
0100
0001
0100
2000
0000
0000
0000
,  // measure 120
0200
0000
3300
0001
0010
0000
0100
0001
,  // measure 121
1000
0001
0010
0100
0001
0000
0000
0000
,  // measure 122
0100
0010
0001
0100
0010
0001
0100
0001
,  // measure 123
0100
0010
0001
0100
2000
0000
0000
0000
,  // measure 124
0200
0000
3300
0010
0100
0000
0100
0010
,  // measure 125
0001
0100
0001
0100
1000
0000
0000
0000
,  // measure 126
0100
0010
0100
0001
1000
0000
0001
0100
,  // measure 127
0001
1000
0001
0010
0200
0000
0300
0000
,  // measure 128
0100
0010
0001
1000
0001
0100
0010
0001
,  // measure 129
0100
0001
0100
0010
0001
0100
0001
0100
,  // measure 130
1000
0010
0100
0010
0001
1000
0001
0100
,  // measure 131
0010
0001
0100
0001
0100
0010
0001
1000
,  // measure 132
0001
0100
0010
0001
0100
0001
0100
0010
,  // measure 133
0001
1000
0001
0100
0010
0100
0001
0100
,  // measure 134
0010
0001
0100
0001
0100
0010
0001
1000
,  // measure 135
0001
0100
0010
0001
0100
0001
0100
1000
;
